8 новых свиданий (2014) WEB-DL 720p | iTunes

Фильмы в формате WEBRip/Avi и т.д.
 Статистика раздачи 
Размер: 2.72 ГБ   |  Зарегистрирован: Февраль 1, 2015, 8:50 am   |   .torrent скачан: 19741 раз
Сидеров: 2759  [ 0 байт/сек ]   Личеров: 96  [ 0 байт/сек ]  

8 новых свиданий (2014) WEB-DL 720p | iTunes

Сообщение sergey » Февраль 1, 2015, 8:50 am

Информация о фильме
Название: 8 новых свиданий
Год выхода: 2015
Жанр: комедия
Режиссер: Марюс Вайсберг
В ролях: Оксана Акиньшина, Владимир Зеленский, Михаил Галустян, Полина Максимова, Сергей Шнуров, Виктор Васильев

О фильме:
Вера и Никита женаты 3 года. В разгар очередной радостной ссоры они обмениваются категоричными мнениями о том, какими должны быть «нормальный муж» и «хорошая жена». И на следующее утро… каждый просыпается с «идеальной половинкой». У Никиты жена-блондинка с третьим размером, которая хорошо готовит; у Веры заботливый муж-бизнесмен, сам покупающий к завтраку ее любимые круасаны. С кем жить лучше, с любимым или идеальным? Будьте осторожны с желаниями — иногда они сбываются!




Выпущено: Россия
Продолжительность: 01:23:55
Озвучивание: Оригинальное [iTunes]

Файл
Формат: MKV (x264)
Качество: WEB-DL 720p
Видео: 4156 kb/s, 1280x720
Аудио: AC3, 384 kb/s (6 ch)







Format : Matroska
Format version : Version 4 / Version 2
File size : 2.72 GiB
Duration : 1h 23mn
Overall bit rate : 4 633 Kbps
Encoded date : UTC 2015-01-31 19:40:53
Writing application : mkvmerge v6.9.1 ('Blue Panther') 64bit built on Apr 18 2014 18:23:38
Writing library : libebml v1.3.0 + libmatroska v1.4.1

Video
ID : 1
Format : AVC
Format/Info : Advanced Video Codec
Format profile : High@L3.1
Format settings, CABAC : No
Format settings, ReFrames : 2 frames
Codec ID : V_MPEG4/ISO/AVC
Duration : 1h 23mn
Bit rate : 4 156 Kbps
Width : 1 280 pixels
Height : 720 pixels
Display aspect ratio : 16:9
Frame rate : 24.000 fps
Color space : YUV
Chroma subsampling : 4:2:0
Bit depth : 8 bits
Scan type : Progressive
Bits/(Pixel*Frame) : 0.188
Stream size : 2.44 GiB (90%)
Language : English
Default : Yes
Forced : No
Color primaries : BT.709-5, BT.1361, IEC 61966-2-4, SMPTE RP177
Transfer characteristics : BT.709-5, BT.1361
Matrix coefficients : BT.709-5, BT.1361, IEC 61966-2-4 709, SMPTE RP177

Audio
ID : 2
Format : AC-3
Format/Info : Audio Coding 3
Mode extension : CM (complete main)
Format settings, Endianness : Big
Codec ID : A_AC3
Duration : 1h 23mn
Bit rate mode : Constant
Bit rate : 384 Kbps
Channel(s) : 6 channels
Channel positions : Front: L C R, Side: L R, LFE
Sampling rate : 48.0 KHz
Bit depth : 16 bits
Compression mode : Lossy
Stream size : 230 MiB (8%)
Language : Russian
Default : Yes
Forced : No

Menu
00:00:00.000 : en:Глава 1
00:06:40.000 : en:Глава 2
00:10:27.000 : en:Глава 3
00:14:24.000 : en:Глава 4
00:18:23.000 : en:Глава 5
00:25:25.000 : en:Глава 6
00:30:39.000 : en:Глава 7
00:35:47.000 : en:Глава 8
00:41:37.000 : en:Глава 9
00:47:12.000 : en:Глава 10
00:52:54.000 : en:Глава 11
00:59:24.000 : en:Глава 12
01:04:57.000 : en:Глава 13
01:10:01.000 : en:Глава 14
01:15:27.000 : en:Глава 15
01:19:00.000 : en:Глава 16
   
Торрент: Зарегистрирован [Февраль 1, 2015, 8:50 am]
Видео WEBRip Скачать торрент Магнет ссылка Смотреть онлайн
Скачать торрент
[ Размер 14.14 КБ / Просмотров 8 ]
Статус:
Проверен
---
.torrent скачан: 19741 раз
Приватный: Нет (DHT включён)
Размер: 2.72 ГБ (2 915 643 212)
   
Аватара пользователя
sergey
 
Раздал: 42.54 ТБ
Скачал: 198.69 ГБ
Ратио: 265.234
Сообщения: 5343
Зарегистрирован: Август 6, 2012, 2:11 pm
Откуда: СССР

Флаг страны: СССР

  • Похожие торренты
    Ответы
    Просмотры
    Последнее сообщение

Вернуться в Видео WEBRip



Кто сейчас на конференции

Сейчас эту тему просматривают: нет зарегистрированных пользователей и гости: 1

Ресурс не содержит никакой другой информации, кроме описаний отдельных файлов или их групп, имеющихся у некоторых пользователей данного ресурса. Подтверждением наличия данных файлов у пользователя может иногда являться специальный набор значений, представляющих собой результаты применения односторонних хеш-функций к этим файлам или их группам. Данные наборы значений объединяются пользователями в единое целое и могут быть выложены ими вместе с описаниями имеющихся у них файлов. Администрация данного ресурса не имеет физической возможности убедиться, что описания файлов, выложенные нашими пользователями, равно как и созданные ими наборы хешей от файлов, соответствуют реальным файлам имеющимся у пользователей, а не созданы каким-либо иным способом.
cron
Яндекс.Метрика