Небесный меч / Heavenly Sword (2014) HDRip-AVC | L1

Мультфильмы
 Статистика раздачи 
Размер: 1.45 ГБ   |  Зарегистрирован: Февраль 3, 2015, 5:35 pm   |   .torrent скачан: 198 раз
Сидеров: 254  [ 0 байт/сек ]   Личеров: 6  [ 0 байт/сек ]  

Небесный меч / Heavenly Sword (2014) HDRip-AVC | L1

Сообщение Denny » Февраль 3, 2015, 5:35 pm

Информация о фильме
Название: Небесный меч
Оригинальное название: Heavenly Sword
Год выхода: 2014
Жанр: мультфильм, фэнтези, боевик, приключения
Режиссер: Ган Хо Джанг
В ролях: Эшли Болл, Бэрри Деннен, Томас Джейн, Альфред Молина, Нолан Норт, Will Spagnola, Анна Торв

О фильме: Тодд Клейн - главный персонаж интересного мультфильма под названием "Небесный меч". Тодд проживает в одной, совсем маленькой деревне, которая находится на юге королевства. Тодд Клейн работает подмастерьем у кузнеца, выполнять задания кузнеца ему нравится. Парень помогает своему отцу по хозяйству, но всем своим сердцем он представляет, как уже сейчас находится на полях сражений, в приключения, путешествиях и интересной погоне за драконом. Главный персонаж мультфильма "Небесный меч" мечтает о различных подвигах, но вот его отец напоминает ему о том, что подвиги начинаются с домашних дел, которые он выполняет для своего любимого и родного отца. Уже в скором времени на деревню нападают неведомые силы с которыми нужно как-то справиться, но как? Ловкие и скользкие существа грабят дома, разрушают их. Противостоять им обычные люди никак не могут, приходится убегать. Покончить с этими неведомыми силами настроен только наш главный герой, но он должен найти Небесный меч.


Выпущено: США / AZ Works, Blockade Entertainment
Продолжительность: 01:26:31
Озвучивание: Любительское (одноголосое) [Павел Морозов aka PashaUp]

Файл
Формат: MKV
Качество: HDRip-AVC
Видео: 2018 kb/s, 1024x576
Аудио: AC3, 384 kb/s (6 ch)





Format : Matroska
Format version : Version 4 / Version 2
File size : 1.45 GiB
Duration : 1h 26mn
Overall bit rate : 2 401 Kbps
Encoded date : UTC 2015-02-02 12:59:01
Writing application : mkvmerge v6.1.0 ('Old Devil') built on Mar 4 2013 09:10:42
Writing library : libebml v1.3.0 + libmatroska v1.4.0

Video
ID : 1
Format : AVC
Format/Info : Advanced Video Codec
Format profile : High@L4.1
Format settings, CABAC : Yes
Format settings, ReFrames : 9 frames
Codec ID : V_MPEG4/ISO/AVC
Duration : 1h 26mn
Bit rate : 2 018 Kbps
Width : 1 024 pixels
Height : 576 pixels
Display aspect ratio : 16:9
Frame rate : 23.976 fps
Color space : YUV
Chroma subsampling : 4:2:0
Bit depth : 8 bits
Scan type : Progressive
Bits/(Pixel*Frame) : 0.143
Stream size : 1.19 GiB (82%)
Writing library : x264 core 130 r2273 b3065e6
Encoding settings : cabac=1 / ref=9 / deblock=1:-3:-3 / analyse=0x3:0x133 / me=umh / subme=11 / psy=1 / psy_rd=1.00:0.20 / mixed_ref=1 / me_range=32 / chroma_me=1 / trellis=2 / 8x8dct=1 / cqm=0 / deadzone=21,11 / fast_pskip=1 / chroma_qp_offset=-3 / threads=18 / lookahead_threads=3 / sliced_threads=0 / nr=0 / decimate=1 / interlaced=0 / bluray_compat=0 / constrained_intra=0 / bframes=8 / b_pyramid=2 / b_adapt=2 / b_bias=0 / direct=3 / weightb=1 / open_gop=0 / weightp=2 / keyint=250 / keyint_min=23 / scenecut=40 / intra_refresh=0 / rc=2pass / mbtree=0 / bitrate=2018 / ratetol=1.0 / qcomp=0.60 / qpmin=0 / qpmax=69 / qpstep=4 / cplxblur=20.0 / qblur=0.5 / ip_ratio=1.40 / pb_ratio=1.30 / aq=1:1.00
Language : English
Default : Yes
Forced : No
Color primaries : BT.709-5, BT.1361, IEC 61966-2-4, SMPTE RP177
Transfer characteristics : BT.709-5, BT.1361
Matrix coefficients : BT.709-5, BT.1361, IEC 61966-2-4 709, SMPTE RP177

Audio
ID : 2
Format : AC-3
Format/Info : Audio Coding 3
Mode extension : CM (complete main)
Format settings, Endianness : Big
Codec ID : A_AC3
Duration : 1h 26mn
Bit rate mode : Constant
Bit rate : 384 Kbps
Channel(s) : 6 channels
Channel positions : Front: L C R, Side: L R, LFE
Sampling rate : 48.0 KHz
Bit depth : 16 bits
Compression mode : Lossy
Stream size : 238 MiB (16%)
Language : Russian
Default : Yes
Forced : No
   
Торрент: Зарегистрирован [Февраль 3, 2015, 5:35 pm]
Мультфильмы Скачать торрент Магнет ссылка Смотреть онлайн
Скачать торрент
[ Размер 15.18 КБ / Просмотров 237 ]
Статус:
Проверен
---
.torrent скачан: 198 раз
Приватный: Нет (DHT включён)
Размер: 1.45 ГБ (1 558 329 003)
   
Аватара пользователя
Denny
 
Раздал: 7.49 ТБ
Скачал: 807.97 ГБ
Ратио: 1007.499
Сообщения: 1934
Зарегистрирован: Ноябрь 19, 2012, 10:49 pm
Откуда: Россия

Флаг страны: Russia

Вернуться в Мультфильмы



Кто сейчас на конференции

Сейчас эту тему просматривают: нет зарегистрированных пользователей и гости: 1

Ресурс не содержит никакой другой информации, кроме описаний отдельных файлов или их групп, имеющихся у некоторых пользователей данного ресурса. Подтверждением наличия данных файлов у пользователя может иногда являться специальный набор значений, представляющих собой результаты применения односторонних хеш-функций к этим файлам или их группам. Данные наборы значений объединяются пользователями в единое целое и могут быть выложены ими вместе с описаниями имеющихся у них файлов. Администрация данного ресурса не имеет физической возможности убедиться, что описания файлов, выложенные нашими пользователями, равно как и созданные ими наборы хешей от файлов, соответствуют реальным файлам имеющимся у пользователей, а не созданы каким-либо иным способом.
cron
Яндекс.Метрика