Крутые спуски / Steep (2007) DVDRip

Телевизионные передачи, ТВ фильмы
 Статистика раздачи 
Размер: 1.46 ГБ   |  Зарегистрирован: Февраль 6, 2015, 9:17 pm   |   .torrent скачан: 14 раз
Сидеров: 6  [ 0 байт/сек ]   Личеров: 1  [ 0 байт/сек ]  

Крутые спуски / Steep (2007) DVDRip

Сообщение Denny » Февраль 6, 2015, 9:17 pm

Страна: США
Производство: High Ground Productions (II)
Жанр: Документальный, спорт
Год выпуска: 2007
Продолжительность: 01:26:19
Перевод: Профессиональный одноголосый
Оригинальная аудиодорожка: Английская
Режиссер: Марк Обенхаус
В ролях: Индгрид Бэкстром, Ансельм Бауд, Билл Бриггс, Даг Кумбс, Крис Девенпорт, Стефано Де Бенедетти, Питер Краузе, Шэйн МакКонки, Эндрю МакЛин, Сет Моррисон

Описание: Вместе с авторами фильма зрители погружаются в пучину экстремального лыжного спорта. Спуск по крутым склонам на огромной скорости с вершин гор высотой больше километра — от этого зрелища захватывает дух. Спортсмены — участники этого документального проекта — заряжаются адреналином не от медалей на различных соревнованиях, а от освоения диких склонов. Этот фильм о людях, которые посвятили свою жизнь экстремальному лыжному спорту, и об их страсти к нему.

Исходник: DVD5 R5
Тип релиза: DVDRip
Контейнер: AVI
Видео: 704x384 (1.83:1), 23.976 fps, XviD MPEG-4 ~1735 kbps avg, 0.27 bit/pixel
Аудио 1: 48 kHz, AC3 Dolby Digital, 2/0 (L,R) ch, ~192 kbps (русский)
Аудио 2: 48 kHz, AC3 Dolby Digital, 2/0 (L,R) ch, ~192 kbps (английский)

Общее
Полное имя : Крутые спуски.avi
Формат : AVI
Формат/Информация : Audio Video Interleave
Размер файла : 1,46 Гбайт
Продолжительность : 1 ч. 40 м.
Общий поток : 2079 Кбит/сек
Программа кодирования : VirtualDubMod 1.5.10.2 (build 2540/release)
Библиотека кодирования : VirtualDubMod build 2540/release

Видео
Идентификатор : 0
Формат : MPEG-4 Visual
Профиль формата : Advanced Simple@L5
Параметр BVOP формата : 2
Параметр QPel формата : Нет
Параметр GMC формата : Без точки перехода
Параметр матрицы формата : Default (MPEG)
Режим смешивания : Сжатый битовый поток
Идентификатор кодека : XVID
Идентификатор кодека/Подсказка : XviD
Продолжительность : 1 ч. 40 м.
Битрейт : 1736 Кбит/сек
Ширина : 704 пикселя
Высота : 384 пикселя
Соотношение сторон : 1,85:1
Частота кадров : 23,976 кадра/сек
Цветовое пространство : YUV
Субдискретизация насыщенности : 4:2:0
Битовая глубина : 8 бит
Тип развёртки : Прогрессивная
Метод сжатия : С потерями
Бит/(Пиксели*Кадры) : 0.268
Размер потока : 1,22 Гбайт (83%)
Библиотека кодирования : XviD 1.2.1 (UTC 2008-12-04)

Аудио #1
Идентификатор : 1
Формат : AC-3
Формат/Информация : Audio Coding 3
Расширение режима : CM (complete main)
Параметр Endianness формата : Big
Идентификатор кодека : 2000
Продолжительность : 1 ч. 26 м.
Продолжительность оригинала : 1 ч. 26 м.
Вид битрейта : Постоянный
Битрейт : 192 Кбит/сек
Каналы : 2 канала
Расположение каналов : Front: L R
Частота : 48,0 КГц
Битовая глубина : 16 бит
Метод сжатия : С потерями
Размер потока : 119 Мбайт (8%)
Выравнивание : Разделение по промежуткам
Продолжительность промежутка : 48 мс. (1,16 видеокадр)
Время предзагрузки промежутка : 500 мс.

Аудио #2
Идентификатор : 2
Формат : AC-3
Формат/Информация : Audio Coding 3
Расширение режима : CM (complete main)
Параметр Endianness формата : Big
Идентификатор кодека : 2000
Продолжительность : 1 ч. 26 м.
Продолжительность оригинала : 1 ч. 26 м.
Вид битрейта : Постоянный
Битрейт : 192 Кбит/сек
Каналы : 2 канала
Расположение каналов : Front: L R
Частота : 48,0 КГц
Битовая глубина : 16 бит
Метод сжатия : С потерями
Размер потока : 119 Мбайт (8%)
Выравнивание : Разделение по промежуткам
Продолжительность промежутка : 48 мс. (1,16 видеокадр)
Время предзагрузки промежутка : 500 мс.


Релиз:
   
Торрент: Зарегистрирован [Февраль 6, 2015, 9:17 pm]
Телевидение Скачать торрент Магнет ссылка Смотреть онлайн
Скачать торрент
[ Размер 15.15 КБ / Просмотров 22 ]
Статус:
Проверен
---
.torrent скачан: 14 раз
Приватный: Нет (DHT включён)
Размер: 1.46 ГБ (1 564 407 808)
   
Аватара пользователя
Denny
 
Раздал: 7.49 ТБ
Скачал: 807.97 ГБ
Ратио: 1007.499
Сообщения: 1934
Зарегистрирован: Ноябрь 19, 2012, 10:49 pm
Откуда: Россия

Флаг страны: Russia

Вернуться в Телевидение



Кто сейчас на конференции

Сейчас эту тему просматривают: нет зарегистрированных пользователей и гости: 1

Ресурс не содержит никакой другой информации, кроме описаний отдельных файлов или их групп, имеющихся у некоторых пользователей данного ресурса. Подтверждением наличия данных файлов у пользователя может иногда являться специальный набор значений, представляющих собой результаты применения односторонних хеш-функций к этим файлам или их группам. Данные наборы значений объединяются пользователями в единое целое и могут быть выложены ими вместе с описаниями имеющихся у них файлов. Администрация данного ресурса не имеет физической возможности убедиться, что описания файлов, выложенные нашими пользователями, равно как и созданные ими наборы хешей от файлов, соответствуют реальным файлам имеющимся у пользователей, а не созданы каким-либо иным способом.
cron
Яндекс.Метрика