Боевик Джексон / Action Jackson (2014) WEB-DL 720p | L2

Фильмы в формате WEBRip/Avi и т.д.
 Статистика раздачи 
Размер: 2.08 ГБ   |  Зарегистрирован: Февраль 7, 2015, 8:16 pm   |   .torrent скачан: 5039 раз
Сидеров: 328  [ 0 байт/сек ]   Личеров: 17  [ 0 байт/сек ]  

Боевик Джексон / Action Jackson (2014) WEB-DL 720p | L2

Сообщение Denny » Февраль 7, 2015, 8:16 pm

Оригинальное название: Action Jackson
Название: Боевик Джексон
Жанр: Комедия, боевик, драма, мюзикл
Режисёр: Прабхудева
Год: 2014
В ролях:Аджай Девган, Сонакши Синха, Ями Гаутам, Кунаал Рой Капур, Аарон Брамфилд, Байрон Гибсон, Сунил Шетти, Роки Верма


…Он говорит лишь раз - Второй раз не повторяет. А если повторит, то враг уже не в состоянии будет это услышать. Один его удар сокрушит тысячу противников, а одно его имя заставит дрожать землю под ногами бандитов и трепетать их трусливые сердца. И в делах сердечных ему равных нет. Он оставит на дороге самого Ромео. Под его чарами не устоит даже жестокая и хладнокровная сестричка отпетого бандита. Но только чем это обернётся...

Страна: Индия
Студия: Baba Films, Eros International
Продолжительность: 02:24:26
Перевод: Любительский двухголосый - den904 & DeadSno)
Кодек: MPEG-4 (AVC)
Качество: WEB-DL (720p)
Видео: 1893 Кбит/с, 1280x720
Звук: АС3, 2 ch, 192 Кбит/с
Субтитры: Русские (на песни)



Общее
Уникальный идентификатор : 229188691297224625464868987841854095151 (0xAC6C22E7BAF9075580D614133DB8BF2F)
Полное имя : Боевик Джексон Action Jackson (2014) WEB-DL (720p)Action Jackson (2014) WEB-DL (720p).mkv
Формат : Matroska
Версия формата : Version 4 / Version 2
Размер файла : 2,08 Гбайт
Продолжительность : 2 ч. 19 м.
Общий поток : 2127 Кбит/сек
Дата кодирования : UTC 2015-02-03 18:00:03
Программа кодирования : mkvmerge v7.2.0 ('On Every Street') 64bit built on Sep 13 2014 15:52:10
Библиотека кодирования : libebml v1.3.0 + libmatroska v1.4.1
DURATION : 02:19:49.984000000
NUMBER_OF_FRAMES : 262187
NUMBER_OF_BYTES : 201359616
_STATISTICS_WRITING_APP : mkvmerge v7.2.0 ('On Every Street') 64bit built on Sep 13 2014 15:52:10
_STATISTICS_WRITING_DATE_UTC : 2015-02-03 18:00:03
_STATISTICS_TAGS : BPS DURATION NUMBER_OF_FRAMES NUMBER_OF_BYTES

Видео
Идентификатор : 1
Формат : AVC
Формат/Информация : Advanced Video Codec
Профиль формата : Main@L3.1
Параметр CABAC формата : Да
Параметр ReFrames формата : 1 кадр
Параметр GOP формата : M=1, N=25
Идентификатор кодека : V_MPEG4/ISO/AVC
Продолжительность : 2 ч. 19 м.
Вид битрейта : Постоянный
Битрейт : 1893 Кбит/сек
Номинальный битрейт : 2000 Кбит/сек
Ширина : 1280 пикселей
Высота : 720 пикселей
Соотношение сторон : 16:9
Режим частоты кадров : Постоянный
Частота кадров : 25,000 кадров/сек
Цветовое пространство : YUV
Субдискретизация насыщенности : 4:2:0
Битовая глубина : 8 бит
Тип развёртки : Прогрессивная
Бит/(Пиксели*Кадры) : 0.082
Размер потока : 1,85 Гбайт (89%)
Default : Да
Forced : Нет

Аудио
Идентификатор : 3
Формат : AC-3
Формат/Информация : Audio Coding 3
Расширение режима : CM (complete main)
Параметр Endianness формата : Big
Идентификатор кодека : A_AC3
Продолжительность : 2 ч. 19 м.
Вид битрейта : Постоянный
Битрейт : 192 Кбит/сек
Каналы : 2 канала
Расположение каналов : Front: L R
Частота : 48,0 КГц
Битовая глубина : 16 бит
Метод сжатия : С потерями
Размер потока : 192 Мбайт (9%)
Default : Да
Forced : Нет

Текст
Идентификатор : 2
Формат : UTF-8
Идентификатор кодека : S_TEXT/UTF8
Идентификатор кодека/Информация : UTF-8 Plain Text
Default : Да
Forced : Нет





   
Торрент: Зарегистрирован [Февраль 7, 2015, 8:16 pm]
Видео WEBRip Скачать торрент Магнет ссылка Смотреть онлайн
Скачать торрент
[ Размер 10.94 КБ / Просмотров 15 ]
Статус:
Проверен
---
.torrent скачан: 5039 раз
Приватный: Нет (DHT включён)
Размер: 2.08 ГБ (2 231 092 407)
   
Аватара пользователя
Denny
 
Раздал: 7.49 ТБ
Скачал: 807.97 ГБ
Ратио: 1007.499
Сообщения: 1934
Зарегистрирован: Ноябрь 19, 2012, 10:49 pm
Откуда: Россия

Флаг страны: Russia

  • Похожие торренты
    Ответы
    Просмотры
    Последнее сообщение

Вернуться в Видео WEBRip



Кто сейчас на конференции

Сейчас эту тему просматривают: нет зарегистрированных пользователей и гости: 1

Ресурс не содержит никакой другой информации, кроме описаний отдельных файлов или их групп, имеющихся у некоторых пользователей данного ресурса. Подтверждением наличия данных файлов у пользователя может иногда являться специальный набор значений, представляющих собой результаты применения односторонних хеш-функций к этим файлам или их группам. Данные наборы значений объединяются пользователями в единое целое и могут быть выложены ими вместе с описаниями имеющихся у них файлов. Администрация данного ресурса не имеет физической возможности убедиться, что описания файлов, выложенные нашими пользователями, равно как и созданные ими наборы хешей от файлов, соответствуют реальным файлам имеющимся у пользователей, а не созданы каким-либо иным способом.
cron
Яндекс.Метрика