Семья маньяка Беляева / Серии: 1-4 из 4 [2014, DVB]

Отечественные и зарубежные сериалы
 Статистика раздачи 
Размер: 5.95 ГБ   |  Зарегистрирован: Февраль 8, 2015, 11:31 am   |   .torrent скачан: 1 раз
Сидеров: 37  [ 0 байт/сек ]   Личеров: 12  [ 0 байт/сек ]  

Семья маньяка Беляева / Серии: 1-4 из 4 [2014, DVB]

Сообщение sergey » Февраль 8, 2015, 11:31 am

Год выпуска: 2014
Производство: Кинокомпания "Русское"
Жанр: Детектив, мелодрама
Продолжительность: 00:46:00
Субтитры: Нет

Режиссёр: Станислав Назиров

В ролях: Екатерина Редникова, Александр Дьяченко, Александр Никольский (II), Дарья Макарова, Андрей Щеткин, Илья Сологуб, Ксения Щербакова, Светлана Милованова, Максим Макаров, Валентина Ляпина, Марина Зайцева, Александр Миронов (III), Александр Касаткин (II)

Описание: Кирилл и Анна Беляевы – добропорядочная семейная пара. Супруги много лет живут в мире и согласии и воспитывают двоих детей. И всё бы было хорошо, если б не жуткие происшествия на улицах их городка.
В тихой провинции одно за другим происходят жестокие убийства. Полиция сбилась с ног, разыскивая маньяка, но все попытки тщетны.
Наконец, удаётся задержать подозреваемого. Им оказывается.. Кирилл Беляев. Все улики указывают на него, и алиби у героя нет.. Неужели примерный семьянин годами скрывал свою страшную вторую жизнь или же Кирилл осужден по ошибке?..





Качество: DVB
Формат: MPEG2
Видео кодек: MPEG2
Аудио кодек: MPEG1
Видео: MPEG2 Video 768х576 @ 720x576 (4:3) 25.00fps ~4472 Kbps (0.431 bit/pixel)
Аудио: MPEG Audio 48000Hz 1 channels 192 Кбит/сек

Сторонней рекламы нет!
Код: Выделить всё
Общее
Полное имя                       : F:\Семья маньяка Беляева DVB\Семья маньяка Беляева 01_02_серия_DVB_by_Серый1779.mpg
Формат                           : MPEG-PS
Размер файла                     : 2,99 Гбайт
Продолжительность                : 1 ч. 29 м.
Общий поток                      : 4759 Кбит/сек

Видео
Идентификатор                    : 224 (0xE0)
Формат                           : MPEG Video
Версия формата                   : Version 2
Профиль формата                  : Main@Main
Параметр BVOP формата            : Да
Параметр матрицы формата         : По умолчанию
Параметры GOP формата            : M=1, N=32
Продолжительность                : 1 ч. 29 м.
Вид битрейта                     : Переменный
Битрейт                          : 4472 Кбит/сек
Номинальный битрейт              : 15,0 Мбит/сек
Ширина                           : 720 пикс.
Высота                           : 576 пикс.
Соотношение сторон               : 4:3
Частота кадров                   : 25,000 кадр/сек
Стандарт вещания                 : PAL
Цветовое пространство            : YUV
Подвыборка цветности             : 4:2:0
Битовая глубина                  : 8 бит
Тип развёртки                    : Чересстрочная
Порядок развёртки                : Верхнее поле первое
Метод сжатия                     : С потерями
Бит/(Пиксели*Кадры)              : 0.431
Размер потока                    : 2,81 Гбайт (94%)

Аудио
Идентификатор                    : 192 (0xC0)
Формат                           : MPEG Audio
Версия формата                   : Version 1
Профиль формата                  : Layer 2
Продолжительность                : 1 ч. 29 м.
Вид битрейта                     : Постоянный
Битрейт                          : 192 Кбит/сек
Каналы                           : 1 канал
Частота                          : 48,0 КГц
Метод сжатия                     : С потерями
Размер потока                    : 123 Мбайт (4%)


   
Торрент: Зарегистрирован [Февраль 8, 2015, 11:31 am]
Сериалы Скачать торрент Магнет ссылка Смотреть онлайн
Скачать торрент
[ Размер 30.48 КБ / Просмотров 1 ]
Статус:
Проверен
---
.torrent скачан: 1 раз
Приватный: Нет (DHT включён)
Размер: 5.95 ГБ (6 391 543 808)
   
Аватара пользователя
sergey
 
Раздал: 42.54 ТБ
Скачал: 198.69 ГБ
Ратио: 265.234
Сообщения: 5343
Зарегистрирован: Август 6, 2012, 2:11 pm
Откуда: СССР

Флаг страны: СССР

  • Похожие торренты
    Ответы
    Просмотры
    Последнее сообщение

Вернуться в Сериалы



Кто сейчас на конференции

Сейчас эту тему просматривают: нет зарегистрированных пользователей и гости: 1

cron
Ресурс не содержит никакой другой информации, кроме описаний отдельных файлов или их групп, имеющихся у некоторых пользователей данного ресурса. Подтверждением наличия данных файлов у пользователя может иногда являться специальный набор значений, представляющих собой результаты применения односторонних хеш-функций к этим файлам или их группам. Данные наборы значений объединяются пользователями в единое целое и могут быть выложены ими вместе с описаниями имеющихся у них файлов. Администрация данного ресурса не имеет физической возможности убедиться, что описания файлов, выложенные нашими пользователями, равно как и созданные ими наборы хешей от файлов, соответствуют реальным файлам имеющимся у пользователей, а не созданы каким-либо иным способом.
cron
Яндекс.Метрика