Голодные игры: Сойка-пересмешница. Часть I / The Hunger Games: Mockingjay - Part 1 (2014) WEB-DL 1080p | Чистый звук

Фильмы в формате WEBRip/Avi и т.д.

Оценка торрента

5
0
Голосов нет
4
0
Голосов нет
3
0
Голосов нет
2
0
Голосов нет
1
0
Голосов нет
 
Всего голосов : 0

 Статистика раздачи 
Размер: 4.27 ГБ   |  Зарегистрирован: Февраль 20, 2015, 6:43 pm   |   .torrent скачан: 104 раз
Сидеров: 275  [ 0 байт/сек ]   Личеров: 4  [ 0 байт/сек ]  

Голодные игры: Сойка-пересмешница. Часть I / The Hunger Games: Mockingjay - Part 1 (2014) WEB-DL 1080p | Чистый звук

Сообщение Denny » Февраль 20, 2015, 6:43 pm

Оригинальное название: The Hunger Games: Mockingjay - Part 1
Название: Голодные игры: Сойка-пересмешница. Часть I
Жанр: Фантастика, приключения
Режиссёр: Френсис Лоуренс
Год: 2014

В ролях: Дженнифер Лоуренс, Лиам Хемсворт, Джош Хатчерсон, Джулианна Мур, Филип Сеймур Хоффман, Дональд Сазерленд, Вуди Харрельсон, Элизабет Бэнкс, Натали Дормер, Сэм Клафлин

... 75-ые Голодные игры изменили все - Китнисс нарушила правила, и непоколебимое до той поры деспотичное правление Капитолия пошатнулось. У людей появилась надежда, и ее символ - Сойка-пересмешница. Теперь, чтобы освободить захваченного в плен Пита и защитить своих близких, Китнисс придется сражаться в настоящих битвах и стать еще сильнее, чем на арене игр...

Страна: США
Студия: Color Force, Lionsgate
Продолжительность: 01:57:48
Перевод: Дублированный ( Чистый звук )
Контейнер: MKV
Кодек: MPEG-4 (AVC)
Качество: WEB-DL
Видео: 4576 Kb/s, 1912x792
Звук: Russian: AC3, 256 Kb/s (2 ch) English: AC3, 384 Kb/s (6 ch)
Субтитры: Отсутствуют
Примечание: Присутствует около 6 минут вставок звука с TS!

Общее
Уникальный идентификатор : 177284290065747225533892307396638534306 (0x855FB658AF056DD1AE20412DDFEBEAA2)
Полное имя : Голодные игры Сойка-пересмешницаC01ka.pePeCmeshHica.2014.D.WEB-DL.1080p.mkv
Формат : Matroska
Версия формата : Version 2
Размер файла : 4,27 Гбайт
Продолжительность : 1 ч. 57 м.
Общий поток : 5187 Кбит/сек
Название фильма : The.Hunger.Games.Mockingjay.Part.1.2014.D.WEB-DL.1080p.ELEKTRI4KA.uniongang.tv [3imeMachi9e]
Дата кодирования : UTC 2015-02-19 08:28:36
Программа кодирования : mkvmerge v5.0.1 ('Es ist Sommer') built on Nov 6 2011 16:23:40
Библиотека кодирования : libebml v1.2.2 + libmatroska v1.3.0
Attachment : Yes / Yes / Yes / Yes

Видео
Идентификатор : 1
Формат : AVC
Формат/Информация : Advanced Video Codec
Профиль формата : High@L4.0
Параметр CABAC формата : Да
Параметр ReFrames формата : 5 кадров
Идентификатор кодека : V_MPEG4/ISO/AVC
Продолжительность : 1 ч. 57 м.
Битрейт : 4444 Кбит/сек
Ширина : 1912 пикселей
Высота : 792 пикселя
Соотношение сторон : 2,40:1
Режим частоты кадров : Постоянный
Частота кадров : 25,000 кадров/сек
Цветовое пространство : YUV
Субдискретизация насыщенности : 4:2:0
Битовая глубина : 8 бит
Тип развёртки : Прогрессивная
Бит/(Пиксели*Кадры) : 0.117
Размер потока : 3,66 Гбайт (86%)
Заголовок : The.Hunger.Games.Mockingjay.Part.1.2014.D.WEB-DL.ELEKTRI4KA.uniongang.tv [3imeMachi9e]
Язык : English
Default : Да
Forced : Нет
Основные цвета : BT.709
Характеристики трансфера : BT.709
Коэффициенты матрицы : BT.709

Аудио #1
Идентификатор : 2
Формат : AC-3
Формат/Информация : Audio Coding 3
Расширение режима : CM (complete main)
Параметр Endianness формата : Big
Идентификатор кодека : A_AC3
Продолжительность : 1 ч. 57 м.
Вид битрейта : Постоянный
Битрейт : 256 Кбит/сек
Каналы : 2 канала
Расположение каналов : Front: L R
Частота : 48,0 КГц
Битовая глубина : 16 бит
Метод сжатия : С потерями
Размер потока : 216 Мбайт (5%)
Заголовок : The.Hunger.Games.Mockingjay.Part.1.2014.D.WEB-DL.1080p.ELEKTRI4KA.uniongang.tv [3imeMachi9e]
Язык : Russian
Default : Да
Forced : Нет

Аудио #2
Идентификатор : 3
Формат : AC-3
Формат/Информация : Audio Coding 3
Расширение режима : CM (complete main)
Параметр Endianness формата : Big
Идентификатор кодека : A_AC3
Продолжительность : 1 ч. 57 м.
Вид битрейта : Постоянный
Битрейт : 384 Кбит/сек
Каналы : 6 каналов
Расположение каналов : Front: L C R, Side: L R, LFE
Частота : 48,0 КГц
Битовая глубина : 16 бит
Метод сжатия : С потерями
Размер потока : 324 Мбайт (7%)
Заголовок : The.Hunger.Games.Mockingjay.Part.1.2014.D.WEB-DL.ELEKTRI4KA.uniongang.tv [3imeMachi9e]
Язык : English
Default : Нет
Forced : Нет

Меню
00:00:00.000 : en:1
00:15:00.000 : en:2
00:30:00.000 : en:3
00:45:00.000 : en:4
01:00:00.000 : en:5
01:15:00.000 : en:6
01:30:00.000 : en:7
01:45:00.000 : en:8


   
Торрент: Зарегистрирован [Февраль 20, 2015, 6:43 pm]
Видео WEBRip Скачать торрент Магнет ссылка Смотреть онлайн
Скачать торрент
[ Размер 21.9 КБ / Просмотров 8 ]
Статус:
Проверен
---
.torrent скачан: 104 раз
Приватный: Нет (DHT включён)
Размер: 4.27 ГБ (4 583 111 644)
   
Аватара пользователя
Denny
 
Раздал: 7.49 ТБ
Скачал: 807.97 ГБ
Ратио: 1007.499
Сообщения: 1934
Зарегистрирован: Ноябрь 19, 2012, 10:49 pm
Откуда: Россия

Флаг страны: Russia

Вернуться в Видео WEBRip



Кто сейчас на конференции

Сейчас эту тему просматривают: нет зарегистрированных пользователей и гости: 1

Ресурс не содержит никакой другой информации, кроме описаний отдельных файлов или их групп, имеющихся у некоторых пользователей данного ресурса. Подтверждением наличия данных файлов у пользователя может иногда являться специальный набор значений, представляющих собой результаты применения односторонних хеш-функций к этим файлам или их группам. Данные наборы значений объединяются пользователями в единое целое и могут быть выложены ими вместе с описаниями имеющихся у них файлов. Администрация данного ресурса не имеет физической возможности убедиться, что описания файлов, выложенные нашими пользователями, равно как и созданные ими наборы хешей от файлов, соответствуют реальным файлам имеющимся у пользователей, а не созданы каким-либо иным способом.
cron
Яндекс.Метрика