Океан мечты: Наслаждение красотой моря / Ocean Dreams: Enjoy the Powerful Beauty of the Sea (2013) BDRip 720p от NNNB

Телевизионные передачи, ТВ фильмы

Оценка торрента

5
0
Голосов нет
4
0
Голосов нет
3
0
Голосов нет
2
0
Голосов нет
1
0
Голосов нет
 
Всего голосов : 0

 Статистика раздачи 
Размер: 3.6 ГБ   |  Зарегистрирован: Февраль 20, 2015, 6:47 pm   |   .torrent скачан: 117 раз
Сидеров: 26  [ 0 байт/сек ]   Личеров: 0  [ 0 байт/сек ]  

Океан мечты: Наслаждение красотой моря / Ocean Dreams: Enjoy the Powerful Beauty of the Sea (2013) BDRip 720p от NNNB

Сообщение Denny » Февраль 20, 2015, 6:47 pm

Название: Океан мечты: Наслаждение красотой моря
Оригинальное название: Ocean Dreams: Enjoy the Powerful Beauty of the Sea
Год выпуска: 2013
Жанр: Документальный, видовой, музыка, релакс
Выпущено: США, 3D Media
Режиссер: Сэм Уивер
Перевод: Не требуется

О фильме: Вы желаете мира и отдыха и по-настоящему расслабиться? Позвольте вашей душе воспарить, а сами откиньтесь на спинку кресла. Великолепные пляжи, высокие пальмы и лазурное море только начало.

Качество: BDRip 720p (исходник Blu-ray)
Формат: AVC (библиотека кодирования x.264)
Контейнер (Расширение): MKV
Видео: 1280x720, 4 749 Кбит/сек, 23.976 кадр/сек, 0,215 Бит/[Пиксели*Кадры]
Аудио №1: AC3 / 5.1 / 48 kHz / 640 kbps / 16 bit - музыкальное сопровождение
Продолжительность: 01:34:02

Format : Matroska
Format version : Version 2
File size : 3.60 GiB
Duration : 1h 33mn
Overall bit rate : 5 499 Kbps
Movie name : Okean mechty.(2013).BDRip.720p.[denis100]
Encoded date : UTC 2015-02-19 12:13:40
Writing application : mkvmerge v5.8.0 ('No Sleep / Pillow') built on Sep 2 2012 15:37:04
Writing library : libebml v1.2.3 + libmatroska v1.3.0

Video
ID : 1
Format : AVC
Format/Info : Advanced Video Codec
Format profile : High@L4.1
Format settings, CABAC : Yes
Format settings, ReFrames : 9 frames
Codec ID : V_MPEG4/ISO/AVC
Duration : 1h 33mn
Bit rate : 4 749 Kbps
Width : 1 280 pixels
Height : 720 pixels
Display aspect ratio : 16:9
Frame rate mode : Constant
Frame rate : 23.976 fps
Color space : YUV
Chroma subsampling : 4:2:0
Bit depth : 8 bits
Scan type : Progressive
Bits/(Pixel*Frame) : 0.215
Stream size : 3.11 GiB (86%)
Title : Okean mechty.(2013).BDRip.720p.[denis100]
Writing library : x264 core 144 r2525 40bb568
Encoding settings : cabac=1 / ref=9 / deblock=1:-3:-3 / analyse=0x3:0x133 / me=umh / subme=11 / psy=1 / psy_rd=1.00:0.05 / mixed_ref=1 / me_range=32 / chroma_me=1 / trellis=2 / 8x8dct=1 / cqm=0 / deadzone=21,11 / fast_pskip=0 / chroma_qp_offset=-3 / threads=6 / lookahead_threads=1 / sliced_threads=0 / nr=0 / decimate=1 / interlaced=0 / bluray_compat=0 / constrained_intra=0 / bframes=8 / b_pyramid=2 / b_adapt=2 / b_bias=0 / direct=3 / weightb=1 / open_gop=0 / weightp=2 / keyint=240 / keyint_min=23 / scenecut=40 / intra_refresh=0 / rc=crf / mbtree=0 / crf=18.0 / qcomp=0.60 / qpmin=0 / qpmax=69 / qpstep=4 / ip_ratio=1.40 / pb_ratio=1.30 / aq=1:0.90
Language : English
Default : Yes
Forced : No

Audio
ID : 2
Format : AC-3
Format/Info : Audio Coding 3
Mode extension : CM (complete main)
Format settings, Endianness : Big
Codec ID : A_AC3
Duration : 1h 33mn
Bit rate mode : Constant
Bit rate : 640 Kbps
Channel(s) : 6 channels
Channel positions : Front: L C R, Side: L R, LFE
Sampling rate : 48.0 KHz
Bit depth : 16 bits
Compression mode : Lossy
Stream size : 430 MiB (12%)
Title : Instrumental
Language : German
Default : Yes
Forced : No

   
Торрент: Зарегистрирован [Февраль 20, 2015, 6:47 pm]
Телевидение Скачать торрент Магнет ссылка Смотреть онлайн
Скачать торрент
[ Размер 18.58 КБ / Просмотров 13 ]
Статус:
Проверен
---
.torrent скачан: 117 раз
Приватный: Нет (DHT включён)
Размер: 3.6 ГБ (3 870 201 603)
   
Аватара пользователя
Denny
 
Раздал: 7.49 ТБ
Скачал: 807.97 ГБ
Ратио: 1007.499
Сообщения: 1934
Зарегистрирован: Ноябрь 19, 2012, 10:49 pm
Откуда: Россия

Флаг страны: Russia

Вернуться в Телевидение



Кто сейчас на конференции

Сейчас эту тему просматривают: нет зарегистрированных пользователей и гости: 1

Ресурс не содержит никакой другой информации, кроме описаний отдельных файлов или их групп, имеющихся у некоторых пользователей данного ресурса. Подтверждением наличия данных файлов у пользователя может иногда являться специальный набор значений, представляющих собой результаты применения односторонних хеш-функций к этим файлам или их группам. Данные наборы значений объединяются пользователями в единое целое и могут быть выложены ими вместе с описаниями имеющихся у них файлов. Администрация данного ресурса не имеет физической возможности убедиться, что описания файлов, выложенные нашими пользователями, равно как и созданные ими наборы хешей от файлов, соответствуют реальным файлам имеющимся у пользователей, а не созданы каким-либо иным способом.
cron
Яндекс.Метрика