Кочадайян - легенда / Kochadaiiyaan (2014) WEB-DLRip | L

Мультфильмы

Оценка торрента

5
0
Голосов нет
4
0
Голосов нет
3
0
Голосов нет
2
0
Голосов нет
1
0
Голосов нет
 
Всего голосов : 0

 Статистика раздачи 
Размер: 1.43 ГБ   |  Зарегистрирован: Февраль 21, 2015, 12:32 pm   |   .torrent скачан: 90 раз
Сидеров: 51  [ 0 байт/сек ]   Личеров: 2  [ 0 байт/сек ]  

Кочадайян - легенда / Kochadaiiyaan (2014) WEB-DLRip | L

Сообщение Denny » Февраль 21, 2015, 12:32 pm

Оригинальное название: Kochadaiiyaan
Название: Кочадайян - легенда
Жанр: Мультфильм, боевик, приключения, история
Режиссёр: Саундарья Раджникант
Год: 2014

В ролях: Раджиникант, Дипика Падукон, Саратх Кумар, Джеки Шрофф, Нассер, Аадхи, Шобана, Рукмини, Шанмугха Раджан, Рамеш Ханна



.. Беллетризованная историческая сага - о смелом герое, прекрасной принцессе, благородстве, храбрости и конечно любви..

Страна: Индия
Продолжительность: 01:58:10
Перевод: Любительский многоголосый закадровый (Павел Морозов, Nastia, Юлия Семыкина)
Кодек: XviD (AVI)
Качество: WEB-DLRip
Видео: XviD, 1535 Кбит/с, 720x304
Звук: AC3, 2 ch, 192 Кбит/с
Субтитры: Отсутствуют



Общее
Полное имя : Кочадайян - легенда Kochadaiiyaan (2014) WEB-DLRipKochadayyan.Legenda.2014.WEB-DLRip.avi
Формат : AVI
Формат/Информация : Audio Video Interleave
Размер файла : 1,43 Гбайт
Продолжительность : 1 ч. 58 м.
Общий поток : 1736 Кбит/сек
Программа кодирования : Lavf51.12.1
Библиотека кодирования : VirtualDub build 34676/release

Видео
Идентификатор : 0
Формат : MPEG-4 Visual
Профиль формата : Simple@L3
Параметр BVOP формата : Нет
Параметр QPel формата : Нет
Параметр GMC формата : Без точки перехода
Параметр матрицы формата : Default (H.263)
Идентификатор кодека : XVID
Идентификатор кодека/Подсказка : XviD
Продолжительность : 1 ч. 58 м.
Битрейт : 1535 Кбит/сек
Ширина : 720 пикселей
Высота : 304 пикселя
Соотношение сторон : 2,35:1
Частота кадров : 24,000 кадра/сек
Цветовое пространство : YUV
Субдискретизация насыщенности : 4:2:0
Битовая глубина : 8 бит
Тип развёртки : Прогрессивная
Метод сжатия : С потерями
Бит/(Пиксели*Кадры) : 0.292
Размер потока : 1,27 Гбайт (88%)
Библиотека кодирования : XviD 64

Аудио
Идентификатор : 1
Формат : AC-3
Формат/Информация : Audio Coding 3
Расширение режима : CM (complete main)
Параметр Endianness формата : Big
Идентификатор кодека : 2000
Продолжительность : 1 ч. 58 м.
Вид битрейта : Постоянный
Битрейт : 192 Кбит/сек
Каналы : 2 канала
Расположение каналов : Front: L R
Частота : 48,0 КГц
Битовая глубина : 16 бит
Метод сжатия : С потерями
Размер потока : 162 Мбайт (11%)
Выравнивание : Соединение по промежуткам
Продолжительность промежутка : 42 мс. (1,00 видеокадр)
Время предзагрузки промежутка : 512 мс.




   
Торрент: Зарегистрирован [Февраль 21, 2015, 12:32 pm]
Мультфильмы Скачать торрент Магнет ссылка Смотреть онлайн
Скачать торрент
[ Размер 14.88 КБ / Просмотров 234 ]
Статус:
Проверен
---
.torrent скачан: 90 раз
Приватный: Нет (DHT включён)
Размер: 1.43 ГБ (1 538 850 178)
   
Аватара пользователя
Denny
 
Раздал: 7.49 ТБ
Скачал: 807.97 ГБ
Ратио: 1007.499
Сообщения: 1934
Зарегистрирован: Ноябрь 19, 2012, 10:49 pm
Откуда: Россия

Флаг страны: Russia

  • Похожие торренты
    Ответы
    Просмотры
    Последнее сообщение

Вернуться в Мультфильмы



Кто сейчас на конференции

Сейчас эту тему просматривают: нет зарегистрированных пользователей и гости: 1

Ресурс не содержит никакой другой информации, кроме описаний отдельных файлов или их групп, имеющихся у некоторых пользователей данного ресурса. Подтверждением наличия данных файлов у пользователя может иногда являться специальный набор значений, представляющих собой результаты применения односторонних хеш-функций к этим файлам или их группам. Данные наборы значений объединяются пользователями в единое целое и могут быть выложены ими вместе с описаниями имеющихся у них файлов. Администрация данного ресурса не имеет физической возможности убедиться, что описания файлов, выложенные нашими пользователями, равно как и созданные ими наборы хешей от файлов, соответствуют реальным файлам имеющимся у пользователей, а не созданы каким-либо иным способом.
cron
Яндекс.Метрика