Черепашки-ниндзя / Teenage Mutant Ninja Turtles / TMNT [S01] (2012-2013) WEB-DLRip

Мультфильмы

Оценка торрента

5
0
Голосов нет
4
0
Голосов нет
3
0
Голосов нет
2
0
Голосов нет
1
0
Голосов нет
 
Всего голосов : 0

 Статистика раздачи 
Размер: 4.98 ГБ   |  Зарегистрирован: Март 10, 2015, 7:18 pm   |   .torrent скачан: 15 раз
Сидеров: 20  [ 0 байт/сек ]   Личеров: 7  [ 0 байт/сек ]  

Черепашки-ниндзя / Teenage Mutant Ninja Turtles / TMNT [S01] (2012-2013) WEB-DLRip

Сообщение Denny » Март 10, 2015, 7:18 pm

Внимание были переименованы название файлов см.ниже как переименовать


Год выпуска: 2012
Страна: США
Жанр: мультфильм, фантастика, боевик, комедия, приключения,
Продолжительность: ~00:23:00
Перевод 1: Любительский (многоголосый закадровый)ZM-SHOW & Arasi Project
Русские субтитры: есть1-12,15-18(ninjaturtles)24(Staselloninjaaa),25-26(Saint Sound)

Режиссер: Майкл Чанг
Сценарий: Джошуа Стернин, Джеффри Вентимилья, Кенни Байрли, ...
Продюсер: Питер Хатингс, MacGregor Middleton, Сайро Нили, ...
Композитор: Себастьян Эванс

В ролях: Шон Эстин / Sean Astin (Raphael, озвучка), Джейсон Биггз / Jason Biggs (Leonardo, озвучка), Грег Сайпс / Greg Cipes (Michelangelo, озвучка), Роб Полсен / Rob Paulsen (Donatello, озвучка), Хун Ли / Hoon Lee (Splinter, озвучка), Мэй Уитман / Mae Whitman (April O'Neil, озвучка), Нолан Норт / Nolan North (Kraang #1, озвучка), Кевин Майкл Ричардсон / Kevin Michael Richardson (The Shredder, озвучка)





Качество: WEB-DLRip
Формат: AVI
Видео кодек: XviD
Аудио кодеk: MP3
Видео: 624x352 (16:9), 23.976 fps, XviD 73, ~878 Kbps
Аудио: Аудио #1: MP3, 128 Kbps, 48.0 KHz, 2 ch RUS MVO
Аудио #2: MP3, 128 Kbps, 48.0 KHz, 2 ch ENG


Код: Выделить всё
General
Complete name                            : Teenage.Mutant.Ninja.Turtles.2012.S01E01_by_S.c.a.r.a.b.e.y_a.k.a_Semak_RG_Y.T.N.avi
Format                                   : AVI
Format/Info                              : Audio Video Interleave
File size                                : 194 MiB
Duration                                 : 23mn 37s
Overall bit rate                         : 1 148 Kbps
Movie name                               : Teenage.Mutant.Ninja.Turtles.2012.S01E01_by_S.c.a.r.a.b.e.y_a.k.a_Semak_RG_Y.T.N
Writing application                      : VirtualDubMod 1.5.10.3 | www.virtualdub-fr.org || (build 2550/release)
Copyright                                : S.c.a.r.a.b.e.y_a.k.a_Semak
Comment                                  : RG Y.T.N.

Video
ID                                       : 0
Format                                   : MPEG-4 Visual
Format profile                           : Advanced Simple@L5
Format settings, BVOP                    : 1
Format settings, QPel                    : No
Format settings, GMC                     : No warppoints
Format settings, Matrix                  : Default (H.263)
Codec ID                                 : DX50
Codec ID/Hint                            : DivX 5
Duration                                 : 23mn 37s
Bit rate                                 : 878 Kbps
Width                                    : 624 pixels
Height                                   : 352 pixels
Display aspect ratio                     : 16:9
Frame rate                               : 23.976 fps
Color space                              : YUV
Chroma subsampling                       : 4:2:0
Bit depth                                : 8 bits
Scan type                                : Progressive
Compression mode                         : Lossy
Bits/(Pixel*Frame)                       : 0.167
Stream size                              : 148 MiB (76%)
Writing library                          : XviD 73

Audio #1
ID                                       : 1
Format                                   : MPEG Audio
Format version                           : Version 1
Format profile                           : Layer 3
Mode                                     : Joint stereo
Mode extension                           : MS Stereo
Codec ID                                 : 55
Codec ID/Hint                            : MP3
Duration                                 : 23mn 37s
Bit rate mode                            : Constant
Bit rate                                 : 128 Kbps
Channel(s)                               : 2 channels
Sampling rate                            : 48.0 KHz
Compression mode                         : Lossy
Stream size                              : 21.6 MiB (11%)
Alignment                                : Aligned on interleaves
Interleave, duration                     : 42 ms (1.00 video frame)
Interleave, preload duration             : 504 ms
Writing library                          : LAME3.99r
Encoding settings                        : -m j -V 4 -q 2 -lowpass 17 -b 128

Audio #2
ID                                       : 2
Format                                   : MPEG Audio
Format version                           : Version 1
Format profile                           : Layer 3
Mode                                     : Joint stereo
Mode extension                           : MS Stereo
Codec ID                                 : 55
Codec ID/Hint                            : MP3
Duration                                 : 23mn 37s
Bit rate mode                            : Constant
Bit rate                                 : 128 Kbps
Channel(s)                               : 2 channels
Sampling rate                            : 48.0 KHz
Compression mode                         : Lossy
Stream size                              : 21.6 MiB (11%)
Alignment                                : Aligned on interleaves
Interleave, duration                     : 42 ms (1.00 video frame)
Interleave, preload duration             : 504 ms
Writing library                          : LAME3.99r
Encoding settings                        : -m j -V 4 -q 2 -lowpass 17 -b 128

Сезон 1
Список серий:
1. Возрождение Черепашек, Часть 1 / Rise of The Turtles Part 1
2. Возрождение Черепашек, Часть 2 / Rise of The Turtles Part 2
3. Черепаший нрав / Turtle Temper
4. Новый друг, старый враг / New Friend, Old Enemy
5. Я думаю, его зовут Бакстер Стокман / I Think His Name is Baxter Stockman
6. Жестиголовый / Metalhead
7. Обезьяньи мозги / Monkey Brains
8. Никогда Не Говори Кромсатель / Never Say Xever
9. Полоса Препятствий / The Gauntlet
10. Паника В Канализации / Panic In The Sewers.
11. Атака Маузеров! / Mousers Attack!
12. Пришедший Из Глубин / It Came From The Depths
13. Я Монстр / I, Monster
14. Новенькая В Городе / New Girl In Town
15. Повестка Дня Инопланетян / The Alien Agenda
16. Измельчитель / The Pulverizer
17. Техно-Космический Научный Исследовательский Институт / TCRI
18. Таракан-Терминатор / Cockroach Terminator
19. Гамбит Бакстера / Baxter's Gambit
20.Враг Моего Врага / Enemy Of My Enemy
21. Вендетта Караи / Karai's Vendetta.
22. Возвращение Пульверизатора! / Pulverizer Returns!
23. Паразитика /Паразитизм /Паразитические осы/Наездники(от лат)/Parasitica
24. Операция: Вырваться / Operation: Break Out
25. Решающий Поединок, Часть 1 / Showdown
26. Решающий Поединок, Часть 2 / Showdown


Жмем ПКМ в Сортировка выбираем тип и по возрастанию тоже самое делаем в Группировка,далее выделяем видео
жмем F2 и пишем TMNT, субтитры удаляем т.к их полностью обновил



Автор рипа: Semak
   
Торрент: Зарегистрирован [Март 10, 2015, 7:18 pm]
Мультфильмы Скачать торрент Магнет ссылка Смотреть онлайн
Скачать торрент
[ Размер 202.15 КБ / Просмотров 243 ]
Статус:
Проверен
---
.torrent скачан: 15 раз
Приватный: Нет (DHT включён)
Размер: 4.98 ГБ (5 344 536 928)
   
Аватара пользователя
Denny
 
Раздал: 7.49 ТБ
Скачал: 807.97 ГБ
Ратио: 1007.499
Сообщения: 1934
Зарегистрирован: Ноябрь 19, 2012, 10:49 pm
Откуда: Россия

Флаг страны: Russia

  • Похожие торренты
    Ответы
    Просмотры
    Последнее сообщение

Вернуться в Мультфильмы



Кто сейчас на конференции

Сейчас эту тему просматривают: нет зарегистрированных пользователей и гости: 1

cron
Ресурс не содержит никакой другой информации, кроме описаний отдельных файлов или их групп, имеющихся у некоторых пользователей данного ресурса. Подтверждением наличия данных файлов у пользователя может иногда являться специальный набор значений, представляющих собой результаты применения односторонних хеш-функций к этим файлам или их группам. Данные наборы значений объединяются пользователями в единое целое и могут быть выложены ими вместе с описаниями имеющихся у них файлов. Администрация данного ресурса не имеет физической возможности убедиться, что описания файлов, выложенные нашими пользователями, равно как и созданные ими наборы хешей от файлов, соответствуют реальным файлам имеющимся у пользователей, а не созданы каким-либо иным способом.
cron
Яндекс.Метрика