Черепашки-ниндзя / Teenage Mutant Ninja Turtles [S02] (2014-2015) WEB-DLRip | D

Мультфильмы

Оценка торрента

5
0
Голосов нет
4
0
Голосов нет
3
0
Голосов нет
2
0
Голосов нет
1
0
Голосов нет
 
Всего голосов : 0

 Статистика раздачи 
Размер: 7.64 ГБ   |  Зарегистрирован: Март 10, 2015, 7:23 pm   |   .torrent скачан: 452 раз
Сидеров: 80  [ 0 байт/сек ]   Личеров: 14  [ 0 байт/сек ]  

Черепашки-ниндзя / Teenage Mutant Ninja Turtles [S02] (2014-2015) WEB-DLRip | D

Сообщение Denny » Март 10, 2015, 7:23 pm

Информация о фильме
Название: Черепашки-ниндзя (2 сезон, 1-26 серии)
Оригинальное название: Teenage Mutant Ninja Turtles
Год выхода: 2014-2015
Жанр: фантастика, боевик, комедия, приключения, семейный
Режиссер: Майкл Чанг, Алан Ван, Себастьян Монтес
В ролях: Шон Эстин, Грег Сайпс, Роб Полсен, Джейсон Биггз, Хун Ли, Мэй Уитман, Нолан Норт, Кевин Майкл Ричардсон, Брайан Блум, Джош Пек

О фильме: Лео, Раф, Майки и Донни – черепашки-мутанты, научившиеся боевому искусству ниндзюцу у своего сэнсэя Учителя Сплинтера. Выбравшись из канализации на улицы Нью-Йорка, братья оказываются в бурлящем жизнью мегаполисе. Здесь им придется неустанно противостоять самым кровожадным злодеям в истории человечества. В свободное от схваток время ребята занимаются своим любимым делом – дурачатся и едят восхитительную сочную пиццу!
Сражаясь с мастером Шредером, мерзким инопланетянином Крэнгом и толпами сверхмощных мутантов, черепашки учатся стоять друг за друга стеной, чтобы стать теми, кем им предписано быть судьбой – отважными и благородными героями!


Продолжительность: 22 х ~00:24:00 + 2 х~00:42:53
Перевод: Профессиональный (полное дублирование) - SDI Media (По заказу Nickelodeon)
Субтитры: отсутствуют

Файл
Формат: AVI
Качество: WEB-DLRip
Видео: 720 x 400 (1.80:1), 23.976 fps, XviD build 73 ~1665 kbps avg, 0.241 bit/pixel
Аудио: 48 kHz, AC3 Dolby Digital, 2/0 (L,R) ch, ~192 kbps | Дубляж, SDI Media |

Автор рипа: Miheleniya

01. Новые Мутации / The Mutation Situation
02. Нашествие Белканоидов / Invasion Of The Squirrelanoids
03. Следуй За Лидером / Follow the Leader
04. Мутагеноид На Свободе / Mutagen Man Unleashed
05. Микки В Прыщах / Mikey Gets Shellacne
06. Цель: Эйприл О'Нил / Target: April O'Neil
07. Круши и Ломай / Slash And Destroy
08. Хороший, Плохой И Кейси Джонс / The Good, The Bad And Casey Jones
09. Заговор Кренгов / The Kraang Conspiracy
10. Гриб-Гигант / Fungus Humungous
11. Апгрейд Железной головы / Metalhead Rewired
12. О крысах и людях / Of Rats And Men
13-14. Манхеттенский проект / Wormquake
15. Лабиринты И Мутанты / Mazes & Mutants
16. Одинокая Мутация Бакстера Стокмана / The Lonely Mutation Of Baxter Stockman
17. Нейтритон / Newtralized
18. Пиццаликий / Pizza Face
19. Гнев Тигриного Когтя / The Wrath Of Tiger Claw
20. Легенда О Куро Кабуто / The Legend Of The Kuro Kabuto
21. План 10 / Plan 10
22. Месть / Vengeance is Mine
23. История о Призраке Китайского Города / A Chinatown Ghost Story
24. В Измерение Икс / Into Dimension X
25-26. Вторжение / Invasion

Общее
Полное имя : Teenage.Mutant.Ninja.Turtles.s02.DUB Teenage.Mutant.Ninja.Turtles.s02e01.avi
Формат : AVI
Формат/Информация : Audio Video Interleave
Размер файла : 303 Мбайт
Продолжительность : 22 м.
Общий поток : 1867 Кбит/сек
Программа кодирования : VirtualDubMod 1.5.10.3 | www.virtualdub-fr.org || (build 2550/release)
Библиотека кодирования : VirtualDubMod build 2550/release

Видео
Идентификатор : 0
Формат : MPEG-4 Visual
Профиль формата : Advanced Simple@L5
Параметр BVOP формата : 1
Параметр QPel формата : Нет
Параметр GMC формата : Без точки перехода
Параметр матрицы формата : Выборочная
Идентификатор кодека : XVID
Идентификатор кодека/Подсказка : XviD
Продолжительность : 22 м.
Битрейт : 1665 Кбит/сек
Ширина : 720 пикс.
Высота : 400 пикс.
Соотношение сторон : 16:9
Частота кадров : 23,976 кадр/сек
Цветовое пространство : YUV
Подвыборка цветности : 4:2:0
Битовая глубина : 8 бит
Тип развёртки : Прогрессивная
Метод сжатия : С потерями
Бит/(Пиксели*Кадры) : 0.241
Размер потока : 271 Мбайт (89%)
Библиотека кодирования : XviD 73

Аудио
Идентификатор : 1
Формат : AC-3
Формат/Информация : Audio Coding 3
Расширение режима : CM (complete main)
Идентификатор кодека : 2000
Продолжительность : 22 м.
Вид битрейта : Постоянный
Битрейт : 192 Кбит/сек
Канал(ы) : 2 канала(ов)
Расположение каналов : Front: L R
Частота : 48,0 КГц
Битовая глубина : 16 бит
Метод сжатия : С потерями
Размер потока : 31,2 Мбайт (10%)
Выравнивание : Разделение по промежуткам
Продолжительность промежутка : 42 мс. (1,00 видеокадр)
Время предзагрузки промежутка : 500 ms



   
Торрент: Зарегистрирован [Март 10, 2015, 7:23 pm]
Мультфильмы Скачать торрент Магнет ссылка Смотреть онлайн
Скачать торрент
[ Размер 40.45 КБ / Просмотров 239 ]
Статус:
Проверен
---
.torrent скачан: 452 раз
Приватный: Нет (DHT включён)
Размер: 7.64 ГБ (8 208 445 440)
   
Аватара пользователя
Denny
 
Раздал: 7.49 ТБ
Скачал: 807.97 ГБ
Ратио: 1007.499
Сообщения: 1934
Зарегистрирован: Ноябрь 19, 2012, 10:49 pm
Откуда: Россия

Флаг страны: Russia

  • Похожие торренты
    Ответы
    Просмотры
    Последнее сообщение

Вернуться в Мультфильмы



Кто сейчас на конференции

Сейчас эту тему просматривают: нет зарегистрированных пользователей и гости: 1

Ресурс не содержит никакой другой информации, кроме описаний отдельных файлов или их групп, имеющихся у некоторых пользователей данного ресурса. Подтверждением наличия данных файлов у пользователя может иногда являться специальный набор значений, представляющих собой результаты применения односторонних хеш-функций к этим файлам или их группам. Данные наборы значений объединяются пользователями в единое целое и могут быть выложены ими вместе с описаниями имеющихся у них файлов. Администрация данного ресурса не имеет физической возможности убедиться, что описания файлов, выложенные нашими пользователями, равно как и созданные ими наборы хешей от файлов, соответствуют реальным файлам имеющимся у пользователей, а не созданы каким-либо иным способом.
cron
Яндекс.Метрика