Город 44 / Miasto 44 (2014) HDRip

Фильмы в формате DVD

Оценка торрента

5
0
Голосов нет
4
0
Голосов нет
3
0
Голосов нет
2
0
Голосов нет
1
0
Голосов нет
 
Всего голосов : 0

 Статистика раздачи 
Размер: 1.45 ГБ   |  Зарегистрирован: Март 17, 2015, 1:03 pm   |   .torrent скачан: 1454 раз
Сидеров: 324  [ 0 байт/сек ]   Личеров: 119  [ 0 байт/сек ]  

Город 44 / Miasto 44 (2014) HDRip

Сообщение sergey » Март 17, 2015, 1:03 pm

[font=georgia]Информация о фильме
Название: Город 44
Оригинальное название: Miasto 44
Год выхода: 2014
Жанр: драма, военный
Режиссер: Ян Комаса
В ролях: Юзеф Павловский, Зофиа Вихлач, Анна Прухняк, Энтони Круликовски, Мауриси Попьел, Михал Миколайчак, Каролина Станец, Жасмин Полак, Томаш Шухардт

О фильме:
Действие фильма начинается перед самым началом варшавского восстания 1 августа 1944 года. Фильм рассказывает о группе близких друзей, которые приезжают в столицу в разгар повстанческой борьбы. Стефан работает на заводе Ведля, содержит мать и младшего брата, ежедневно испытывая унижения немцев. Мечтает о мгновении, когда сможет им за все отплатить и исполнить долг перед Родиной. Как только представляется случай — он вступает в ряды Армии Крайовой. Во время конспиративных встреч Стефан знакомится с Бедронкой, тонкой и впечатлительной девушкой. Молодые люди познают вкус первой юношеской любви. Но когда смерть грозит на каждом шагу, такая любовь не может быть счастливой…


Страна: Польша
Студия: Akson Studio, Stern Pictures
Продолжительность: 02:06:46
Перевод: Любительский (двухголосый закадровый)

Файл
Кодек: XviD
Качество: HDRip (исх BDRip 720p)
Видео: 688x288, 1248 kbps, 24 fps, 0,262 Bits/(Pixel*Frame)
Звук: AC3, 48 kHz, 6 ch, 384 kbps
Субтитры: Нет

General
Complete name : I:Miasto.44.2014.HDRip_by_Bathory.avi
Format : AVI
Format/Info : Audio Video Interleave
File size : 1.45 GiB
Duration : 2h 6mn
Overall bit rate : 1 641 Kbps
Writing application : VirtualDubMod 1.5.10.3 | http://www.virtualdub-fr.org || (build 2550/release)
Writing library : VirtualDubMod build 2550/release

Video
ID : 0
Format : MPEG-4 Visual
Format profile : Advanced Simple@L5
Format settings, BVOP : 1
Format settings, QPel : No
Format settings, GMC : No warppoints
Format settings, Matrix : Default (MPEG)
Codec ID : XVID
Codec ID/Hint : XviD
Duration : 2h 6mn
Bit rate : 1 248 Kbps
Width : 688 pixels
Height : 288 pixels
Display aspect ratio : 2.40:1
Frame rate : 24.000 fps
Color space : YUV
Chroma subsampling : 4:2:0
Bit depth : 8 bits
Scan type : Progressive
Compression mode : Lossy
Bits/(Pixel*Frame) : 0.262
Stream size : 1.10 GiB (76%)
Writing library : XviD 73

Audio
ID : 1
Format : AC-3
Format/Info : Audio Coding 3
Mode extension : CM (complete main)
Format settings, Endianness : Big
Codec ID : 2000
Duration : 2h 6mn
Bit rate mode : Constant
Bit rate : 384 Kbps
Channel(s) : 6 channels
Channel positions : Front: L C R, Side: L R, LFE
Sampling rate : 48.0 KHz
Bit depth : 16 bits
Compression mode : Lossy
Stream size : 348 MiB (23%)
Alignment : Split accross interleaves
Interleave, duration : 42 ms (1.00 video frame)
Interleave, preload duration : 500 ms



   
Торрент: Зарегистрирован [Март 17, 2015, 1:03 pm]
Видео DVD Скачать торрент Магнет ссылка Смотреть онлайн
Скачать торрент
[ Размер 15.23 КБ / Просмотров 9 ]
Статус:
Проверен
---
.torrent скачан: 1454 раз
Приватный: Нет (DHT включён)
Размер: 1.45 ГБ (1 560 074 240)
   
Аватара пользователя
sergey
 
Раздал: 42.54 ТБ
Скачал: 198.69 ГБ
Ратио: 265.263
Сообщения: 5358
Зарегистрирован: Август 6, 2012, 2:11 pm
Откуда: СССР

Флаг страны: СССР

  • Похожие торренты
    Ответы
    Просмотры
    Последнее сообщение

Вернуться в Видео DVD



Кто сейчас на конференции

Сейчас эту тему просматривают: нет зарегистрированных пользователей и гости: 1

Ресурс не содержит никакой другой информации, кроме описаний отдельных файлов или их групп, имеющихся у некоторых пользователей данного ресурса. Подтверждением наличия данных файлов у пользователя может иногда являться специальный набор значений, представляющих собой результаты применения односторонних хеш-функций к этим файлам или их группам. Данные наборы значений объединяются пользователями в единое целое и могут быть выложены ими вместе с описаниями имеющихся у них файлов. Администрация данного ресурса не имеет физической возможности убедиться, что описания файлов, выложенные нашими пользователями, равно как и созданные ими наборы хешей от файлов, соответствуют реальным файлам имеющимся у пользователей, а не созданы каким-либо иным способом.
cron
Яндекс.Метрика