Сапожник / The Cobbler (2014) WEB-DL 720p

Фильмы в формате WEBRip/Avi и т.д.

Оценка торрента

5
0
Голосов нет
4
0
Голосов нет
3
0
Голосов нет
2
0
Голосов нет
1
0
Голосов нет
 
Всего голосов : 0

 Статистика раздачи 
Размер: 3.1 ГБ   |  Зарегистрирован: Март 18, 2015, 10:06 pm   |   .torrent скачан: 705 раз
Сидеров: 1178  [ 0 байт/сек ]   Личеров: 350  [ 0 байт/сек ]  

Сапожник / The Cobbler (2014) WEB-DL 720p

Сообщение sergey » Март 18, 2015, 10:06 pm

Информация о фильме
Название: Сапожник
Оригинальное название: The Cobbler
Год выхода: 2014
Жанр: фэнтези, драма, комедия
Режиссер: Томас МакКарти
В ролях: Адам Сэндлер, Дэн Стивенс, Стив Бушеми, Дастин Хоффман, Эллен Баркин, Елена Кампурис, Гленн Флешлер, Метод Мэн, Мелони Диас, Джаред Сэндлер
О фильме:
Макс Симкин занимается ремонтом обуви в Нью-Йорке. Он работает в магазине, который передавался его семьей из поколения в поколение. Однажды, разочарованный своей скучной жизнью, Макс натыкается на волшебную реликвию, которая позволяет ему увидеть мир по-новому.



Выпущено: США
Продолжительность: 01:38:02
Озвучивание: Любительское (двухголосое) [Sunny-Films]
Файл
Формат: MKV
Качество: WEB-DL 720p
Видео: 3864 kb/s, 1280x690
АУдио: Russian: AC3, 192 kb/s (2 ch) / English: AC3, 384 kb/s (6 ch)
Субтитры: English

Format : Matroska
Format version : Version 4 / Version 2
File size : 3.10 GiB
Duration : 1h 38mn
Overall bit rate : 4 530 Kbps
Encoded date : UTC 2015-03-18 11:42:40
Writing application : mkvmerge v6.1.0 ('Old Devil') built on Mar 4 2013 09:10:42
Writing library : libebml v1.3.0 + libmatroska v1.4.0

Video
ID : 1
Format : AVC
Format/Info : Advanced Video Codec
Format profile : High@L3.1
Format settings, CABAC : No
Format settings, ReFrames : 2 frames
Codec ID : V_MPEG4/ISO/AVC
Duration : 1h 38mn
Bit rate : 3 864 Kbps
Width : 1 280 pixels
Height : 690 pixels
Display aspect ratio : 1.85:1
Frame rate : 23.976 fps
Color space : YUV
Chroma subsampling : 4:2:0
Bit depth : 8 bits
Scan type : Progressive
Bits/(Pixel*Frame) : 0.182
Stream size : 2.65 GiB (85%)
Language : English
Default : Yes
Forced : No
Color primaries : BT.709-5, BT.1361, IEC 61966-2-4, SMPTE RP177
Transfer characteristics : BT.709-5, BT.1361
Matrix coefficients : BT.709-5, BT.1361, IEC 61966-2-4 709, SMPTE RP177

Audio #1
ID : 2
Format : AC-3
Format/Info : Audio Coding 3
Mode extension : CM (complete main)
Format settings, Endianness : Big
Codec ID : A_AC3
Duration : 1h 38mn
Bit rate mode : Constant
Bit rate : 192 Kbps
Channel(s) : 2 channels
Channel positions : Front: L R
Sampling rate : 48.0 KHz
Bit depth : 16 bits
Compression mode : Lossy
Stream size : 135 MiB (4%)
Language : Russian
Default : Yes
Forced : No

Audio #2
ID : 3
Format : AC-3
Format/Info : Audio Coding 3
Mode extension : CM (complete main)
Format settings, Endianness : Big
Codec ID : A_AC3
Duration : 1h 38mn
Bit rate mode : Constant
Bit rate : 384 Kbps
Channel(s) : 6 channels
Channel positions : Front: L C R, Side: L R, LFE
Sampling rate : 48.0 KHz
Bit depth : 16 bits
Compression mode : Lossy
Stream size : 269 MiB (8%)
Language : English
Default : No
Forced : No

Text
ID : 4
Format : UTF-8
Codec ID : S_TEXT/UTF8
Codec ID/Info : UTF-8 Plain Text
Language : English
Default : No
Forced : No

Menu
00:00:00.000 : en:1
00:08:30.000 : en:2
00:16:08.000 : en:3
00:23:34.000 : en:4
00:39:05.000 : en:5
00:46:02.000 : en:6
00:52:00.000 : en:7
01:00:35.000 : en:8
01:08:49.000 : en:9
01:15:41.000 : en:10
01:26:43.000 : en:11
01:33:18.000 : en:12



   
Торрент: Зарегистрирован [Март 18, 2015, 10:06 pm]
Видео WEBRip Скачать торрент Магнет ссылка Смотреть онлайн
Скачать торрент
[ Размер 16.07 КБ / Просмотров 7 ]
Статус:
Проверен
---
.torrent скачан: 705 раз
Приватный: Нет (DHT включён)
Размер: 3.1 ГБ (3 331 285 816)
   
Аватара пользователя
sergey
 
Раздал: 42.54 ТБ
Скачал: 198.69 ГБ
Ратио: 265.240
Сообщения: 5356
Зарегистрирован: Август 6, 2012, 2:11 pm
Откуда: СССР

Флаг страны: СССР

  • Похожие торренты
    Ответы
    Просмотры
    Последнее сообщение

Вернуться в Видео WEBRip



Кто сейчас на конференции

Сейчас эту тему просматривают: нет зарегистрированных пользователей и гости: 1

Ресурс не содержит никакой другой информации, кроме описаний отдельных файлов или их групп, имеющихся у некоторых пользователей данного ресурса. Подтверждением наличия данных файлов у пользователя может иногда являться специальный набор значений, представляющих собой результаты применения односторонних хеш-функций к этим файлам или их группам. Данные наборы значений объединяются пользователями в единое целое и могут быть выложены ими вместе с описаниями имеющихся у них файлов. Администрация данного ресурса не имеет физической возможности убедиться, что описания файлов, выложенные нашими пользователями, равно как и созданные ими наборы хешей от файлов, соответствуют реальным файлам имеющимся у пользователей, а не созданы каким-либо иным способом.
cron
Яндекс.Метрика