Приключения викингов / Viking Quest (2014) HDRip

Фильмы в формате DVD

Оценка торрента

5
0
Голосов нет
4
0
Голосов нет
3
0
Голосов нет
2
0
Голосов нет
1
0
Голосов нет
 
Всего голосов : 0

 Статистика раздачи 
Размер: 743.96 МБ   |  Зарегистрирован: Март 19, 2015, 4:34 pm   |   .torrent скачан: 4037 раз
Сидеров: 567  [ 0 байт/сек ]   Личеров: 115  [ 0 байт/сек ]  

Приключения викингов / Viking Quest (2014) HDRip

Сообщение sergey » Март 19, 2015, 4:34 pm

Информация о фильме
Название: Приключения викингов
Оригинальное название: Viking Quest
Год выхода: 2014
Жанр: фэнтези, боевик
Режиссер: Тодор Чапканов
В ролях: Гарри Смит, Дженни Бойд, Оливер Уолкер, Аня Тейлор-Джой, Нэйт Феллоуз, Валентин Ганев, Веселин Мезеклиев, Бен Кросс, Кеймен Костов, Муса Исуфи

О фильме:
Скандинавия. VII век нашей эры. Эрик, молодой воин-викинг, объединяет усилия с конкурирующим кланом, чтобы спасти похищенную змеем из Мидгарда принцессу. Это опаснейшая задача с риском гораздо большим, чем риск потерять жизни. Спасая принцессу, они могут вызвать Рагнарок - конец света.

Страна: Канада, Болгария
Продолжительность: 01:27:59
Перевод: Профессиональный (многоголосый) [SDI]

Файл
Кодек: AVI (XviD)
Качество: HDRip
Видео: 656x368 (1.78:1), 23.976 fps, XviD build 73 ~1045 kbps avg, 0.18 bit/pixel
Звук: 48 kHz, MPEG Layer 3, 2 ch, ~128.00 kbps avg
Субтитры: нет

Семпл

Общее
Полное имя : S:ФильмыПриключения викингов. 2014. HDRip. (AleksSin).avi
Формат : AVI
Формат/Информация : Audio Video Interleave
Размер файла : 744 Мбайт
Продолжительность : 1 ч. 27 м.
Общий поток : 1182 Кбит/сек
Программа кодирования : VirtualDubMod 1.5.10.3 | http://www.virtualdub-fr.org || (build 2550/release)
Библиотека кодирования : VirtualDubMod build 2550/release

Видео
Идентификатор : 0
Формат : MPEG-4 Visual
Профиль формата : Advanced Simple@L5
Параметр BVOP формата : 1
Параметр QPel формата : Нет
Параметр GMC формата : Без точки перехода
Параметр матрицы формата : Выборочная
Идентификатор кодека : XVID
Идентификатор кодека/Подсказка : XviD
Продолжительность : 1 ч. 27 м.
Битрейт : 1045 Кбит/сек
Ширина : 656 пикс.
Высота : 368 пикс.
Соотношение сторон : 16:9
Частота кадров : 23,976 кадр/сек
Цветовое пространство : YUV
Подвыборка цветности : 4:2:0
Битовая глубина : 8 бит
Тип развёртки : Прогрессивная
Метод сжатия : С потерями
Бит/(Пиксели*Кадры) : 0.181
Размер потока : 658 Мбайт (88%)
Библиотека кодирования : XviD 73

Аудио
Идентификатор : 1
Формат : MPEG Audio
Версия формата : Version 1
Профиль формата : Layer 3
Идентификатор кодека : 55
Идентификатор кодека/Подсказка : MP3
Продолжительность : 1 ч. 27 м.
Вид битрейта : Постоянный
Битрейт : 128 Кбит/сек
Каналы : 2 канала
Частота : 48,0 КГц
Метод сжатия : С потерями
Размер потока : 80,6 Мбайт (11%)
Выравнивание : Соединение по промежуткам
Продолжительность промежутка : 42 мс. (1,00 видеокадр)
Время предзагрузки промежутка : 504 ms
Библиотека кодирования : LAME3.99r
Настройки программы : -m s -V 4 -q 2 -lowpass 17 -b 128

   
Торрент: Зарегистрирован [Март 19, 2015, 4:34 pm]
Видео DVD Скачать торрент Магнет ссылка Смотреть онлайн
Скачать торрент
[ Размер 15.21 КБ / Просмотров 3 ]
Статус:
Проверен
---
.torrent скачан: 4037 раз
Приватный: Нет (DHT включён)
Размер: 743.96 МБ (780 097 536)
   
Аватара пользователя
sergey
 
Раздал: 42.54 ТБ
Скачал: 198.69 ГБ
Ратио: 265.263
Сообщения: 5358
Зарегистрирован: Август 6, 2012, 2:11 pm
Откуда: СССР

Флаг страны: СССР

  • Похожие торренты
    Ответы
    Просмотры
    Последнее сообщение

Вернуться в Видео DVD



Кто сейчас на конференции

Сейчас эту тему просматривают: нет зарегистрированных пользователей и гости: 1

Ресурс не содержит никакой другой информации, кроме описаний отдельных файлов или их групп, имеющихся у некоторых пользователей данного ресурса. Подтверждением наличия данных файлов у пользователя может иногда являться специальный набор значений, представляющих собой результаты применения односторонних хеш-функций к этим файлам или их группам. Данные наборы значений объединяются пользователями в единое целое и могут быть выложены ими вместе с описаниями имеющихся у них файлов. Администрация данного ресурса не имеет физической возможности убедиться, что описания файлов, выложенные нашими пользователями, равно как и созданные ими наборы хешей от файлов, соответствуют реальным файлам имеющимся у пользователей, а не созданы каким-либо иным способом.
cron
Яндекс.Метрика