Моя любимая мумия / Dummie de Mummie (Пим ван Хуве / Pim van Hoeve) [2014, Нидерланды, детский, приключения, DVDRip] VO (Мегапыхарь)

Фильмы в формате DVD

Оценка торрента

5
0
Голосов нет
4
0
Голосов нет
3
0
Голосов нет
2
0
Голосов нет
1
0
Голосов нет
 
Всего голосов : 0

 Статистика раздачи 
Размер: 661.61 МБ   |  Зарегистрирован: Март 21, 2015, 12:52 pm   |   .torrent скачан: 1 раз
Сидеров: 48  [ 0 байт/сек ]   Личеров: 0  [ 0 байт/сек ]  

Моя любимая мумия / Dummie de Mummie (Пим ван Хуве / Pim van Hoeve) [2014, Нидерланды, детский, приключения, DVDRip] VO (Мегапыхарь)

Сообщение Denny » Март 21, 2015, 12:52 pm

Моя любимая мумия / Dummie de Mummie

Страна: Нидерланды
Жанр: детский, приключения
Год выпуска: 2014
Продолжительность: 01:16:30

Перевод: Одноголосый закадровый (Мегапыхарь)
Cубтитры: нет
Режиссер: Пим ван Хуве / Pim van Hoeve

В ролях: Юлиан Рас, Руланд Фернхаут, Яхья Гайр, Тон Кас, Наоми Таренскен

Описание: В провинциальный музей привозят самую настоящую египетскую мумию. Когда в нее попадает молния, мумия благополучно оживает и отправляется исследовать окрестности. Вскоре она встречает местного школьника, они становятся друзьями и у них начинается жутко увлекательная жизнь.

Доп. информация: Поначалу фильм честно притворяется универсальной детской сказкой. Нереально красивая, игрушечная Голландия с маленькими домиками и ветряными мельницами. Феерия юмора, вся жизнь — бесконечные каникулы.
Но, перевалив за середину, фильм резко меняется. На место комедии приходит мелодрама, которая начинает выжимать из зрителя слезу. Конечно, финал будет счастливым, но очень впечатлительным и маленьким детям лучше от просмотра воздержаться.

Приз зрительских симпатий в рамках программы «Современное семейное кино» Фестиваля фильмов для детей и юношества в Амстердаме.

Номинация на премию Нидерландской Киноакадемии в категории «Лучший детский фильм года».

Перевод: М.Васильев
Озвучка: Мегапыхарь (проект KINONAVSE100)

Качество видео: DVDRip
Формат видео: AVI

Видео: 1007 Kbps, 720x304 (2.35:1) 25 000 fps, XviD
Аудио: 192 Kbps, 44.1 KHz, 16 bits, 2 ch, AC 3
General
Complete name : Dummie.The.Mummy.2014.avi
Format : AVI
Format/Info : Audio Video Interleave
File size : 662 MiB
Duration : 1h 16mn
Overall bit rate : 1 209 Kbps
Writing application : Lavf51.12.1

Video
ID : 0
Format : xvid
Codec ID : xvid
Duration : 1h 16mn
Bit rate : 1 007 Kbps
Width : 720 pixels
Height : 304 pixels
Display aspect ratio : 2.35:1
Frame rate : 25.000 fps
Bits/(Pixel*Frame) : 0.184
Stream size : 551 MiB (83%)

Audio
ID : 1
Format : AC-3
Format/Info : Audio Coding 3
Mode extension : CM (complete main)
Format settings, Endianness : Big
Codec ID : 2000
Duration : 1h 16mn
Bit rate mode : Constant
Bit rate : 192 Kbps
Channel(s) : 2 channels
Channel positions : Front: L R
Sampling rate : 44.1 KHz
Bit depth : 16 bits
Compression mode : Lossy
Stream size : 105 MiB (16%)
Alignment : Aligned on interleaves
Interleave, duration : 35 ms (0.87 video frame)



   
Торрент: Зарегистрирован [Март 21, 2015, 12:52 pm]
Видео DVD Скачать торрент Магнет ссылка Смотреть онлайн
Скачать торрент
[ Размер 13.42 КБ / Просмотров 4 ]
Статус:
Проверен
---
.torrent скачан: 1 раз
Приватный: Нет (DHT включён)
Размер: 661.61 МБ (693 752 822)
   
Аватара пользователя
Denny
 
Раздал: 7.49 ТБ
Скачал: 807.97 ГБ
Ратио: 1007.499
Сообщения: 1934
Зарегистрирован: Ноябрь 19, 2012, 10:49 pm
Откуда: Россия

Флаг страны: Russia

  • Похожие торренты
    Ответы
    Просмотры
    Последнее сообщение

Вернуться в Видео DVD



Кто сейчас на конференции

Сейчас эту тему просматривают: нет зарегистрированных пользователей и гости: 1

Ресурс не содержит никакой другой информации, кроме описаний отдельных файлов или их групп, имеющихся у некоторых пользователей данного ресурса. Подтверждением наличия данных файлов у пользователя может иногда являться специальный набор значений, представляющих собой результаты применения односторонних хеш-функций к этим файлам или их группам. Данные наборы значений объединяются пользователями в единое целое и могут быть выложены ими вместе с описаниями имеющихся у них файлов. Администрация данного ресурса не имеет физической возможности убедиться, что описания файлов, выложенные нашими пользователями, равно как и созданные ими наборы хешей от файлов, соответствуют реальным файлам имеющимся у пользователей, а не созданы каким-либо иным способом.
cron
Яндекс.Метрика