Врумиз / Vroomiz / Сезон 1 / Серии: 1-26 из 26 (2012) DVDRip от New-Team | лицензия

Мультфильмы

Оценка торрента

5
0
Голосов нет
4
0
Голосов нет
3
0
Голосов нет
2
0
Голосов нет
1
0
Голосов нет
 
Всего голосов : 0

 Статистика раздачи 
Размер: 4.55 ГБ   |  Зарегистрирован: Март 23, 2015, 8:15 pm   |   .torrent скачан: 268 раз
Сидеров: 205  [ 0 байт/сек ]   Личеров: 22  [ 0 байт/сек ]  

Врумиз / Vroomiz / Сезон 1 / Серии: 1-26 из 26 (2012) DVDRip от New-Team | лицензия

Сообщение Denny » Март 23, 2015, 8:15 pm

«Некогда скучать!»



Страна: Сингапур / VROOMIZ@SAMG/EBS/SKB/KOSSA
Год выпуска: 2012
Жанр: мультфильм, приключения, детский
Продолжительность: ~ 00:13:10 / серия
Перевод: Профессиональный (дублированный)
Субтитры: нет
Оригинальная аудиодорожка: нет

Режиссер: Йонг Чул Джо / Yong Chul Joe

Озвучивали: неизвестно

Описание: Добро пожаловать в фантастический мир Врумиз. Здесь, в городе Зиппи Сити, вы познакомитесь с машинками-зверюшками — гепардом Спиди, обезьянкой Банги, олененком Фаррой, пандой ПиТи и жирафом Джиральдиной. Спиди — самый быстрый малый в Зиппи Сити. Он отважно гоняет по суперсовременному гоночному треку в Зиппи Сити и верит, что станет чемпионом. Жизнь Врумиз полна приключений, опасностей и сюрпризов. Спиди и его друзья, решая проблемы Зиппи Сити, с легкостью выходят из любой ситуации, проявляя невероятную выдумку и изобретательность. Пристегните ремни безопасности и поехали на прогулку с Врумиз! Врум-врум!



Качество: DVDRip / DVD5 R5 от компании "Мистерия звука"
Формат: AVI

Видео: 704x400 (16:9), 25.000 fps, XviD ~ 1690 kbps avg, 0.240 bit/pixel
Аудио: 48 kHz, Dolby AC3 2.0 192 kbps, русский

01. Пропавшие проказники
02. В поисках веселья
03. Сила воображения
04. Спасение на скорость
05. Клуб не для всех
06. Привидение каньона Карбюраторов
07. Самый лучший полицейский
08. Унесённые ветром
09. Загадочная дорога
10. Лунный Банги
11. Забытый друг
12. Грязная катастрофа
13. День розыгрышей
14. Ночные приключения
15. Гаражная распродажа
16. Копировальная машина
17. Маленький врунишка
18. Остуди двигатель
19. Капитан чистоты
20. Снежный день
21. Фантастика
22. Юные детективы
23. Летняя история
24. Дух соперничества
25. На морском причале
26. Легенда о драконе

General
Format : AVI
Format/Info : Audio Video Interleave
File size : 179 MiB
Duration : 13mn 12s
Overall bit rate : 1 892 Kbps
Writing application : VirtualDubModRus 1.5.10.2 (build 2542/release)
Writing library : VirtualDubMod build 2542/release

Video
ID : 0
Format : MPEG-4 Visual
Format profile : Advanced Simple@L5
Format settings, BVOP : 1
Format settings, QPel : No
Format settings, GMC : No warppoints
Format settings, Matrix : Custom
Codec ID : XVID
Codec ID/Hint : XviD
Duration : 13mn 12s
Bit rate : 1 690 Kbps
Width : 704 pixels
Height : 400 pixels
Display aspect ratio : 16:9
Frame rate : 25.000 fps
Color space : YUV
Chroma subsampling : 4:2:0
Bit depth : 8 bits
Scan type : Progressive
Compression mode : Lossy
Bits/(Pixel*Frame) : 0.240
Stream size : 160 MiB (89%)
Writing library : XviD 73

Audio
ID : 1
Format : AC-3
Format/Info : Audio Coding 3
Mode extension : CM (complete main)
Format settings, Endianness : Big
Codec ID : 2000
Duration : 13mn 12s
Bit rate mode : Constant
Bit rate : 192 Kbps
Channel(s) : 2 channels
Channel positions : Front: L R
Sampling rate : 48.0 KHz
Bit depth : 16 bits
Compression mode : Lossy
Stream size : 18.1 MiB (10%)
Alignment : Split accross interleaves
Interleave, duration : 40 ms (1.00 video frame)
Interleave, preload duration : 500 ms


   
Торрент: Зарегистрирован [Март 23, 2015, 8:15 pm]
Мультфильмы Скачать торрент Магнет ссылка Смотреть онлайн
Скачать торрент
[ Размер 13.79 КБ / Просмотров 2 ]
Статус:
Проверен
---
.torrent скачан: 268 раз
Приватный: Нет (DHT включён)
Размер: 4.55 ГБ (4 880 613 376)
   
Аватара пользователя
Denny
 
Раздал: 7.49 ТБ
Скачал: 807.97 ГБ
Ратио: 1007.499
Сообщения: 1934
Зарегистрирован: Ноябрь 19, 2012, 10:49 pm
Откуда: Россия

Флаг страны: Russia

Вернуться в Мультфильмы



Кто сейчас на конференции

Сейчас эту тему просматривают: нет зарегистрированных пользователей и гости: 1

cron
Ресурс не содержит никакой другой информации, кроме описаний отдельных файлов или их групп, имеющихся у некоторых пользователей данного ресурса. Подтверждением наличия данных файлов у пользователя может иногда являться специальный набор значений, представляющих собой результаты применения односторонних хеш-функций к этим файлам или их группам. Данные наборы значений объединяются пользователями в единое целое и могут быть выложены ими вместе с описаниями имеющихся у них файлов. Администрация данного ресурса не имеет физической возможности убедиться, что описания файлов, выложенные нашими пользователями, равно как и созданные ими наборы хешей от файлов, соответствуют реальным файлам имеющимся у пользователей, а не созданы каким-либо иным способом.
cron
Яндекс.Метрика