Кибер / Blackhat (2015) WEB-DL 720p

Фильмы в формате WEBRip/Avi и т.д.

Оценка торрента

5
0
Голосов нет
4
0
Голосов нет
3
0
Голосов нет
2
0
Голосов нет
1
0
Голосов нет
 
Всего голосов : 0

 Статистика раздачи 
Размер: 4.12 ГБ   |  Зарегистрирован: Март 26, 2015, 8:14 am   |   .torrent скачан: 4761 раз
Сидеров: 2008  [ 0 байт/сек ]   Личеров: 329  [ 0 байт/сек ]  

Кибер / Blackhat (2015) WEB-DL 720p

Сообщение sergey » Март 26, 2015, 8:14 am

Информация о фильме
Название: Кибер
Оригинальное название: Blackhat
Год выхода: 2015
Жанр: боевик, триллер, драма, криминал, детектив
Режиссер: Майкл Манн
В ролях: Крис Хемсворт, Ван Лихом, Тан Вэй, Виола Дэвис, Холт МакКэллани, Энди Он, Ричи Костер, Кристиан Борл, Джон Ортис, Йорик ван Вагенинген
О фильме:
Спокойная, размеренная жизнь современного мирового пространства. Кажется, что ничто не может нарушить равномерный, плавный ход событий, жизнь настолько механизирована, все рассчитано до мельчайшей детали, что, казалось бы, что может произойти? Какое событие может выбить из колеи столь идеально отлаженную машину? Однако именно разработки в области новейших технологий представляют главную угрозу человечеству. Лучшие ученые умы из США и Китая объединяют силы в борьбе против самой мощной кибернетической атаки.


Выпущено: США
Продолжительность: 02:12:55
Озвучивание: Дублированное [iTunes]
Файл
Формат: MKV
Качество: WEB-DL 720p
Видео: 3966 kb/s, 1280x532
Аудио: Russian: AC3, 384 kb/s (6 ch)

Format : Matroska
Format version : Version 4 / Version 2
File size : 4.12 GiB
Duration : 2h 12mn
Overall bit rate : 4 439 Kbps
Encoded date : UTC 2015-03-25 18:20:42
Writing application : mkvmerge v6.9.1 ('Blue Panther')
64bit built on Apr 18 2014 18:23:38
Writing library : libebml v1.3.0 + libmatroska v1.4.1

Video
ID : 1
Format : AVC
Format/Info : Advanced Video Codec
Format profile : Main@L3.1
Format settings, CABAC : No
Format settings, ReFrames : 2 frames
Codec ID : V_MPEG4/ISO/AVC
Duration : 2h 12mn
Bit rate : 3 966 Kbps
Width : 1 280 pixels
Height : 532 pixels
Display aspect ratio : 2.40:1
Frame rate : 23.976 fps
Color space : YUV
Chroma subsampling : 4:2:0
Bit depth : 8 bits
Scan type : Progressive
Bits/(Pixel*Frame) : 0.243
Stream size : 3.68 GiB (89%)
Language : English
Default : Yes
Forced : No
Color primaries : BT.709-5, BT.1361, IEC 61966-2-4, SMPTE RP177
Transfer characteristics : BT.709-5, BT.1361
Matrix coefficients : BT.709-5, BT.1361, IEC 61966-2-4 709, SMPTE RP177

Audio
ID : 2
Format : AC-3
Format/Info : Audio Coding 3
Mode extension : CM (complete main)
Codec ID : A_AC3
Duration : 2h 12mn
Bit rate mode : Constant
Bit rate : 384 Kbps
Channel(s) : 6 channels
Channel positions : Front: L C R, Side: L R, LFE
Sampling rate : 48.0 KHz
Bit depth : 16 bits
Compression mode : Lossy
Stream size : 365 MiB (9%)
Language : Russian
Default : Yes
Forced : No

Menu
00:00:00.000 : en:глава 1
00:06:16.000 : en:глава 2
00:13:45.000 : en:глава 3
00:20:24.000 : en:глава 4
00:27:33.000 : en:глава 5
00:33:00.000 : en:глава 6
00:37:32.000 : en:глава 7
00:45:01.000 : en:глава 8
00:55:03.000 : en:глава 9
01:00:20.000 : en:глава 10
01:07:46.000 : en:глава 11
01:13:25.000 : en:глава 12
01:20:49.000 : en:глава 13
01:26:25.000 : en:глава 14
01:33:41.000 : en:глава 15
01:38:38.000 : en:глава 16
01:43:51.000 : en:глава 17
01:47:21.000 : en:глава 18
01:54:34.000 : en:глава 19
02:04:17.000 : en:глава 20






   
Торрент: Зарегистрирован [Март 26, 2015, 8:14 am]
Видео WEBRip Скачать торрент Магнет ссылка Смотреть онлайн
Скачать торрент
[ Размер 21.16 КБ / Просмотров 7 ]
Статус:
Проверен
---
.torrent скачан: 4761 раз
Приватный: Нет (DHT включён)
Размер: 4.12 ГБ (4 425 120 922)
   
Аватара пользователя
sergey
 
Раздал: 42.54 ТБ
Скачал: 198.69 ГБ
Ратио: 265.234
Сообщения: 5350
Зарегистрирован: Август 6, 2012, 2:11 pm
Откуда: СССР

Флаг страны: СССР

  • Похожие торренты
    Ответы
    Просмотры
    Последнее сообщение

Вернуться в Видео WEBRip



Кто сейчас на конференции

Сейчас эту тему просматривают: нет зарегистрированных пользователей и гости: 1

Ресурс не содержит никакой другой информации, кроме описаний отдельных файлов или их групп, имеющихся у некоторых пользователей данного ресурса. Подтверждением наличия данных файлов у пользователя может иногда являться специальный набор значений, представляющих собой результаты применения односторонних хеш-функций к этим файлам или их группам. Данные наборы значений объединяются пользователями в единое целое и могут быть выложены ими вместе с описаниями имеющихся у них файлов. Администрация данного ресурса не имеет физической возможности убедиться, что описания файлов, выложенные нашими пользователями, равно как и созданные ими наборы хешей от файлов, соответствуют реальным файлам имеющимся у пользователей, а не созданы каким-либо иным способом.
cron
Яндекс.Метрика