Советский Союз: Двадцать лет со дня гибели партии и государства ( 1 часть ) [2014 г., документальный, HDTVRip]

Фильмы высокого разрешения в формате HDTV

Оценка торрента

5
0
Голосов нет
4
0
Голосов нет
3
0
Голосов нет
2
0
Голосов нет
1
0
Голосов нет
 
Всего голосов : 0

 Статистика раздачи 
Размер: 968.23 МБ   |  Зарегистрирован: Март 31, 2015, 2:22 pm   |   .torrent скачан: 6 раз
Сидеров: 76  [ 0 байт/сек ]   Личеров: 5  [ 0 байт/сек ]  

Советский Союз: Двадцать лет со дня гибели партии и государства ( 1 часть ) [2014 г., документальный, HDTVRip]

Сообщение sergey » Март 31, 2015, 2:22 pm

Советский Союз: Двадцать лет со дня гибели партии и государства ( 1 часть)


Год выпуска: 2014
Жанр: Документальный
Страна: Россия

Сюжет фильма:
Вот, что происходит когда во власть приходят харизматичные лицедеи. (хотя и понимаешь, что подкоп во власть со стороны запада шёл на протяжении всего
Советского периода, Горбачев это уже был окончательный процесс разрушения).Перестройка Горбачева была буржуазно-феодальной, то-есть торгашеско-воровской контрреволюцией. Качество видео:

Продолжительность: 00:38:24
Формат: avi
Видео: DivX 4, 854x480, 3256 kbps
Аудио: русский, одноголосый закадровый [профессиональный], MP3 2.0, 256 kbps
Код:
General
Complete name                    : sovetskiy_soyuz_20_let_1_seriya.avi
Format                           : AVI
Format/Info                      : Audio Video Interleave
File size                        : 968 MiB
Duration                         : 38mn 24s
Overall bit rate                 : 3 524 Kbps
Writing application              : Lavf52.93.0

Video
ID                               : 0
Format                           : MPEG-4 Visual
Format profile                   : Simple@L1
Format settings, BVOP            : No
Format settings, QPel            : No
Format settings, GMC             : No warppoints
Format settings, Matrix          : Default (H.263)
Codec ID                         : DIVX
Codec ID/Info                    : Project Mayo
Codec ID/Hint                    : DivX 4
Duration                         : 38mn 24s
Bit rate                         : 3 256 Kbps
Width                            : 854 pixels
Height                           : 480 pixels
Display aspect ratio             : 16/9
Frame rate                       : 25.000 fps
Resolution                       : 24 bits
Colorimetry                      : 4:2:0
Scan type                        : Progressive
Bits/(Pixel*Frame)               : 0.318
Stream size                      : 895 MiB (92%)
Writing library                  : Lavc52.108.0

Audio
ID                               : 1
Format                           : MPEG Audio
Format version                   : Version 1
Format profile                   : Layer 3
Codec ID                         : 55
Codec ID/Hint                    : MP3
Duration                         : 38mn 24s
Bit rate mode                    : Constant
Bit rate                         : 256 Kbps
Channel(s)                       : 2 channels
Sampling rate                    : 44.1 KHz
Resolution                       : 16 bits
Stream size                      : 70.3 MiB (7%)
Alignment                        : Aligned on interleaves
Interleave, duration             : 26 ms (0.65 video frame)
Interleave, preload duration     : 52 ms
Writing library                  : LAME3.98.4

Для увеличения картинки щелкните мышкой по превью
   
Торрент: Зарегистрирован [Март 31, 2015, 2:22 pm]
Видео HDTV Скачать торрент Магнет ссылка Смотреть онлайн
Скачать торрент
[ Размер 19.7 КБ / Просмотров 76 ]
Статус:
Проверен
---
.torrent скачан: 6 раз
Приватный: Нет (DHT включён)
Размер: 968.23 МБ (1 015 266 094)
   
Аватара пользователя
sergey
 
Раздал: 42.54 ТБ
Скачал: 198.69 ГБ
Ратио: 265.234
Сообщения: 5337
Зарегистрирован: Август 6, 2012, 2:11 pm
Откуда: СССР

Флаг страны: СССР

Вернуться в Видео HDTV



Кто сейчас на конференции

Сейчас эту тему просматривают: нет зарегистрированных пользователей и гости: 1

cron
Ресурс не содержит никакой другой информации, кроме описаний отдельных файлов или их групп, имеющихся у некоторых пользователей данного ресурса. Подтверждением наличия данных файлов у пользователя может иногда являться специальный набор значений, представляющих собой результаты применения односторонних хеш-функций к этим файлам или их группам. Данные наборы значений объединяются пользователями в единое целое и могут быть выложены ими вместе с описаниями имеющихся у них файлов. Администрация данного ресурса не имеет физической возможности убедиться, что описания файлов, выложенные нашими пользователями, равно как и созданные ими наборы хешей от файлов, соответствуют реальным файлам имеющимся у пользователей, а не созданы каким-либо иным способом.
cron
Яндекс.Метрика