Багамские острова: Таинственные пещеры и затонувшие корабли / Adventure Bahamas: Mysterious Caves And Wrecks (2012) BDRip 720p от NNNB

Телевизионные передачи, ТВ фильмы

Оценка торрента

5
0
Голосов нет
4
0
Голосов нет
3
0
Голосов нет
2
0
Голосов нет
1
0
Голосов нет
 
Всего голосов : 0

 Статистика раздачи 
Размер: 2.61 ГБ   |  Зарегистрирован: Апрель 5, 2015, 7:57 am   |   .torrent скачан: 26 раз
Сидеров: 22  [ 0 байт/сек ]   Личеров: 2  [ 0 байт/сек ]  

Багамские острова: Таинственные пещеры и затонувшие корабли / Adventure Bahamas: Mysterious Caves And Wrecks (2012) BDRip 720p от NNNB

Сообщение Denny » Апрель 5, 2015, 7:57 am

Багамские острова: Таинственные пещеры и затонувшие корабли / Adventure Bahamas: Mysterious Caves And Wrecks

Русское название: Багамские острова: Таинственные пещеры и затонувшие корабли
Оригинальное название: Adventure Bahamas: Mysterious Caves And Wrecks
Год выпуска: 2012
Жанр: документальный
Выпущено: Германия
Перевод: Профессиональный (одноголосый)

Сюжет фильма:
Багамские острова давно стали синонимом удивительных и загадочных приключений. Живописный архипелаг в Атлантическом океане между Кубой и Флоридой, насчитывающий около 2500 рифов и 700 островов, давно стал настоящей Меккой для любителей экстремального дайвинга. Уникальные съемки красот подводного мира, древних пещер и затонувших кораблей, откроют все тайны океана истинным любителям морских глубин.



Качество: BDRip 720p (исходник Blu-ray)
Формат: AVC (библиотека кодирования x.264)
Контейнер (Расширение): MKV
Видео: 1280x720 (16:9), 5692 Кбит/сек, 23,976 кадр/сек, 0,258 Бит/[Пиксели*Кадры]
Аудио №1: русский / AC3 / 5.1 / 48 kHz / 640 kbps / |Профессиональный (одноголосый)|
Аудио №2: английский / AC3 / 5.1 / 48 kHz / 640 kbps /
Субтитры: русские
Продолжительность: 00:52:33

Format : Matroska
Format version : Version 2
File size : 2.61 GiB
Duration : 52mn 33s
Overall bit rate : 7 114 Kbps
Movie name : Bagamskie ostrova.(2012).BDRip.720p.[denis100]
Encoded date : UTC 2015-04-04 07:16:55
Writing application : mkvmerge v5.8.0 ('No Sleep / Pillow') built on Sep 2 2012 15:37:04
Writing library : libebml v1.2.3 + libmatroska v1.3.0

Video
ID : 1
Format : AVC
Format/Info : Advanced Video Codec
Format profile : High@L4.1
Format settings, CABAC : Yes
Format settings, ReFrames : 9 frames
Codec ID : V_MPEG4/ISO/AVC
Duration : 52mn 33s
Bit rate : 5 692 Kbps
Width : 1 280 pixels
Height : 720 pixels
Display aspect ratio : 16:9
Frame rate : 23.976 fps
Color space : YUV
Chroma subsampling : 4:2:0
Bit depth : 8 bits
Scan type : Progressive
Bits/(Pixel*Frame) : 0.258
Stream size : 2.09 GiB (80%)
Title : Bagamskie ostrova.(2012).BDRip.720p.[denis100]
Writing library : x264 core 146 r2538 121396c
Encoding settings : cabac=1 / ref=9 / deblock=1:-3:-3 / analyse=0x3:0x133 / me=umh / subme=11 / psy=1 / psy_rd=1.00:0.00 / mixed_ref=1 / me_range=32 / chroma_me=1 / trellis=2 / 8x8dct=1 / cqm=0 / deadzone=21,11 / fast_pskip=0 / chroma_qp_offset=-2 / threads=6 / lookahead_threads=1 / sliced_threads=0 / nr=0 / decimate=1 / interlaced=0 / bluray_compat=0 / constrained_intra=0 / bframes=9 / b_pyramid=2 / b_adapt=2 / b_bias=0 / direct=3 / weightb=1 / open_gop=0 / weightp=2 / keyint=240 / keyint_min=23 / scenecut=40 / intra_refresh=0 / rc=crf / mbtree=0 / crf=18.0 / qcomp=0.60 / qpmin=0 / qpmax=69 / qpstep=4 / ip_ratio=1.40 / pb_ratio=1.30 / aq=1:0.90
Language : English
Default : Yes
Forced : No

Audio #1
ID : 2
Format : AC-3
Format/Info : Audio Coding 3
Mode extension : CM (complete main)
Codec ID : A_AC3
Duration : 52mn 33s
Bit rate mode : Constant
Bit rate : 640 Kbps
Channel(s) : 6 channels
Channel positions : Front: L C R, Side: L R, LFE
Sampling rate : 48.0 KHz
Bit depth : 16 bits
Compression mode : Lossy
Stream size : 241 MiB (9%)
Title : Профессиональный одноголосый
Language : Russian
Default : Yes
Forced : No

Audio #2
ID : 3
Format : AC-3
Format/Info : Audio Coding 3
Mode extension : CM (complete main)
Codec ID : A_AC3
Duration : 52mn 33s
Bit rate mode : Constant
Bit rate : 640 Kbps
Channel(s) : 6 channels
Channel positions : Front: L C R, Side: L R, LFE
Sampling rate : 48.0 KHz
Bit depth : 16 bits
Compression mode : Lossy
Stream size : 241 MiB (9%)
Language : English
Default : No
Forced : No

Text
ID : 4
Format : UTF-8
Codec ID : S_TEXT/UTF8
Codec ID/Info : UTF-8 Plain Text
Language : Russian
Default : No
Forced : No
   
Торрент: Зарегистрирован [Апрель 5, 2015, 7:57 am]
Телевидение Скачать торрент Магнет ссылка Смотреть онлайн
Скачать торрент
[ Размер 13.62 КБ / Просмотров 18 ]
Статус:
Проверен
---
.torrent скачан: 26 раз
Приватный: Нет (DHT включён)
Размер: 2.61 ГБ (2 803 748 168)
   
Аватара пользователя
Denny
 
Раздал: 7.49 ТБ
Скачал: 807.97 ГБ
Ратио: 1007.499
Сообщения: 1934
Зарегистрирован: Ноябрь 19, 2012, 10:49 pm
Откуда: Россия

Флаг страны: Russia

Вернуться в Телевидение



Кто сейчас на конференции

Сейчас эту тему просматривают: нет зарегистрированных пользователей и гости: 1

Ресурс не содержит никакой другой информации, кроме описаний отдельных файлов или их групп, имеющихся у некоторых пользователей данного ресурса. Подтверждением наличия данных файлов у пользователя может иногда являться специальный набор значений, представляющих собой результаты применения односторонних хеш-функций к этим файлам или их группам. Данные наборы значений объединяются пользователями в единое целое и могут быть выложены ими вместе с описаниями имеющихся у них файлов. Администрация данного ресурса не имеет физической возможности убедиться, что описания файлов, выложенные нашими пользователями, равно как и созданные ими наборы хешей от файлов, соответствуют реальным файлам имеющимся у пользователей, а не созданы каким-либо иным способом.
cron
Яндекс.Метрика