Белая белая ночь (2014) WEB-DLRip

Фильмы в формате WEBRip/Avi и т.д.

Оценка торрента

5
0
Голосов нет
4
0
Голосов нет
3
0
Голосов нет
2
0
Голосов нет
1
0
Голосов нет
 
Всего голосов : 0

 Статистика раздачи 
Размер: 752.41 МБ   |  Зарегистрирован: Апрель 27, 2015, 8:43 am   |   .torrent скачан: 212 раз
Сидеров: 36  [ 0 байт/сек ]   Личеров: 8  [ 0 байт/сек ]  

Белая белая ночь (2014) WEB-DLRip

Сообщение sergey » Апрель 27, 2015, 8:43 am

Информация о фильме
Название: Белая белая ночь
Год выхода: 2014
Жанр: драма, криминал
Режиссер: Рамиль Салахутдинов
В ролях: Ирина Обрезкова, Артем Цыпин, Сергей Барковский, Оксана Базилевич, Алла Еминцева, Дмитрий Гульнев, Петр Касатьев, Владимир Марьянов, Светлана Обидина, Юрий Орлов

О фильме:
Молодой парень приезжает в Петербург на концерт и пропадает. На его поиски из Москвы отправляется частный детектив Игорь. В ходе расследования он встречается с разными людьми, перед ним возникает современная гнетущая атмосфера города, в котором он сам жил много лет назад. В результате Игорь узнает, что пропавший парень случайно оказался втянутым в криминальную историю, связанную с современной застройкой исторического центра Петербурга. Он находит парня в больнице избитым, в состоянии комы и обнаруживает, что избившие его люди по-прежнему охотятся на него. Подвергая себя серьезной опасности, Игорь берет парня под свою защиту, и это дает ему почувствовать свою востребованность...


Страна: Россия
Продолжительность: 02:02:15
Перевод: Не требуется

Файл
Кодек: AVI (XviD)
Качество: WEB-DLRip
Видео: 624x336 (1.86:1), 24 fps, XviD build 73 ~723 kbps avg, 0.14 bit/pixel
Звук: 48 kHz, MPEG Layer 3, 2 ch, ~128.00 kbps avg
Субтитры: нет

Семпл

Общее
Полное имя : S:ФильмыБелая белая ночь. 2014. WEB-DLRip (AleksSin).avi
Формат : AVI
Формат/Информация : Audio Video Interleave
Размер файла : 752 Мбайт
Продолжительность : 2 ч. 2 м.
Общий поток : 860 Кбит/сек
Программа кодирования : VirtualDubMod 1.5.10.3 | http://www.virtualdub-fr.org || (build 2550/release)
Библиотека кодирования : VirtualDubMod build 2550/release

Видео
Идентификатор : 0
Формат : MPEG-4 Visual
Профиль формата : Advanced Simple@L5
Параметр BVOP формата : 1
Параметр QPel формата : Нет
Параметр GMC формата : Без точки перехода
Параметр матрицы формата : Выборочная
Идентификатор кодека : XVID
Идентификатор кодека/Подсказка : XviD
Продолжительность : 2 ч. 2 м.
Битрейт : 723 Кбит/сек
Ширина : 624 пикс.
Высота : 336 пикс.
Соотношение сторон : 1,857
Частота кадров : 24,000 кадр/сек
Цветовое пространство : YUV
Подвыборка цветности : 4:2:0
Битовая глубина : 8 бит
Тип развёртки : Прогрессивная
Метод сжатия : С потерями
Бит/(Пиксели*Кадры) : 0.144
Размер потока : 632 Мбайт (84%)
Библиотека кодирования : XviD 73

Аудио
Идентификатор : 1
Формат : MPEG Audio
Версия формата : Version 1
Профиль формата : Layer 3
Идентификатор кодека : 55
Идентификатор кодека/Подсказка : MP3
Продолжительность : 2 ч. 2 м.
Вид битрейта : Постоянный
Битрейт : 128 Кбит/сек
Каналы : 2 канала
Частота : 48,0 КГц
Метод сжатия : С потерями
Размер потока : 112 Мбайт (15%)
Выравнивание : Соединение по промежуткам
Продолжительность промежутка : 42 мс. (1,00 видеокадр)
Время предзагрузки промежутка : 504 ms
Библиотека кодирования : LAME3.99r
Настройки программы : -m s -V 4 -q 2 -lowpass 17 -b 128

   
Торрент: Зарегистрирован [Апрель 27, 2015, 8:43 am]
Видео WEBRip Скачать торрент Магнет ссылка Смотреть онлайн
Скачать торрент
[ Размер 15.38 КБ / Просмотров 11 ]
Статус:
Проверен
---
.torrent скачан: 212 раз
Приватный: Нет (DHT включён)
Размер: 752.41 МБ (788 963 328)
   
Аватара пользователя
sergey
 
Раздал: 42.54 ТБ
Скачал: 198.69 ГБ
Ратио: 265.240
Сообщения: 5356
Зарегистрирован: Август 6, 2012, 2:11 pm
Откуда: СССР

Флаг страны: СССР

  • Похожие торренты
    Ответы
    Просмотры
    Последнее сообщение

Вернуться в Видео WEBRip



Кто сейчас на конференции

Сейчас эту тему просматривают: нет зарегистрированных пользователей и гости: 1

Ресурс не содержит никакой другой информации, кроме описаний отдельных файлов или их групп, имеющихся у некоторых пользователей данного ресурса. Подтверждением наличия данных файлов у пользователя может иногда являться специальный набор значений, представляющих собой результаты применения односторонних хеш-функций к этим файлам или их группам. Данные наборы значений объединяются пользователями в единое целое и могут быть выложены ими вместе с описаниями имеющихся у них файлов. Администрация данного ресурса не имеет физической возможности убедиться, что описания файлов, выложенные нашими пользователями, равно как и созданные ими наборы хешей от файлов, соответствуют реальным файлам имеющимся у пользователей, а не созданы каким-либо иным способом.
cron
Яндекс.Метрика