Cпецназ древнего мира / Ancient Black Ops (сезон 1 серии 1-10 (10)) (2014) HDTVRip 720 | D

Телевизионные передачи, ТВ фильмы

Оценка торрента

5
0
Голосов нет
4
0
Голосов нет
3
0
Голосов нет
2
0
Голосов нет
1
0
Голосов нет
 
Всего голосов : 0

 Статистика раздачи 
Размер: 11.49 ГБ   |  Зарегистрирован: Май 3, 2015, 9:55 pm   |   .torrent скачан: 2 раз
Сидеров: 6  [ 0 байт/сек ]   Личеров: 8  [ 0 байт/сек ]  

Cпецназ древнего мира / Ancient Black Ops (сезон 1 серии 1-10 (10)) (2014) HDTVRip 720 | D

Сообщение Denny » Май 3, 2015, 9:55 pm

Название: Cпецназ древнего мира

В оригинале: Ancient Black Ops

Год: 2014

Сезон: 1

Серии: 1-10

Всего серий: 10

Режиссёр: Ким Хогг

Описание:
Сериал рассказывает о первых элитных подразделениях, которые существовали в древнем мире. Правители мира сего всегда нуждались в защите, поэтому в их распоряжении находились специально обученные воины, владеющие невероятными навыками, а также обученные пользоваться разнообразным оружием, и готовые на все ради сохранения жизни своего лидера. В каждой серии рассказывается о методах, которые использовались различными элитными войсками для выполнения специальных задач. Вы узнаете историю воинских формирований Греции, Византии, Японии и других древних цивилизаций. Узнаем, как древнескандинавский викинг мог держать под контролем целую армию, имея в распоряжении лишь боевой топор и галлюциногенные наркотики, как 47 ронинов однажды отомстили за смерть своего хозяина ценой собственных жизней, а также как ацтеки посылали своих воинов-ягуаров в стан врага в качестве группы захвата, чтобы обезвредить противников. Нас ждут захватывающие истории, возвращающие на много веков назад и рассказывающие о реальных конфликтах представителей античного мира. Именитые эксперты поделятся своим взглядом на события давно минувших дней, а точная реконструкция позволит воочию понаблюдать за работой элитных подразделений древнего мира.

Выпущено: Великобритания

Продолжительность: 10 х ~ 00:49:00

Перевод: Дублированный [D]

Формат: MKV

Качество: HDTVRip 720

Видео: 1280x720, ~3000kbps, 25.0fps, AVC

Аудио: AC-3, 48.0kHz, 2ch, 192kbps
1. Ассасины / Assassins
Ассасины являлись самым смертоносным войском средневековья. Чтобы понять, кем они на самом деле были, нам необходимо отправится в Персию 11 века.
2. Спартанцы / Spartans
Находясь под угрозой нападения персидской армии, древние греки вынуждены были создать свои собственные войска специального назначения. Воины этой элитной части назывались спартанцами.
3. Сикарии / The Sicarii
Сикарии являлись войсками специального назначения, которые сражались против римских захватчиков в Иерусалиме в I веке нашей эры.
4. Воины призраки / The Ghost Warriors
Воины призраки являлись элитными войсками древней Германии, которые были обучены сражению ночью. Они, как правило, появлялись из неоткуда, вселяя панику и страх.
5. Берсерки (Викинги) / The Viking Berserkers
Берсерки были скандинавскими воинами, которые отличались неистовостью, неимоверной силой, быстрой реакцией и нечувствительностью к боли.
6. Варяжская гвардия / The Varangian Guard
Варяжская гвардия являлась элитным войском и одним из крупнейших подразделений Византийской империи.
7. «Воины-орлы» ацтеков / Aztec Eagle Warriors
Воины-ягуары входили в состав армии ацтеков и представляли собой элитные воинские части, аналогичные воинам-орлам.
8. Гавайские воины Коа / Hawaiian Koa Warriors
Когда-то на Гавайских островах проживали древние воины, которые изобрели искусство боя под названием Капу Куялуа, которое заключалось в том, что воин должен был сломать каждую кость противника.
9. Ниндзя / Ninja
Ниндзя являлись наемными убийцами в древней Японии. Согласно легендам, ниндзя были отважные, тренированные люди, прошедшие ещё с детства подготовку в очень сложном искусстве ниндзюцу.
10. 47 ронинов / The 47 Ronin
Ронины – это самураи – изгнанники, которые сражались за восстановление чести своего хозяина. Их легендарный героизм был отражен в художественном фильме «47 ронинов».

Спецназ древнего мираSpecnaz.drevnego.mira.4.serija..mkv
   General
      Unique ID : 192158659931044379187581582930554665669 (0x90906966B54A396AA6A7704A10103AC5)
      Complete name : Спецназ древнего мираSpecnaz.drevnego.mira.4.serija..mkv
      Format : Matroska
      Format version : Version 4 / Version 2
      File size : 1.13 GiB
      Duration : 48mn 46s
      Overall bit rate : 3 305 Kbps
      Encoded date : UTC 2014-10-30 19:57:34
      Writing application : mkvmerge v6.6.0 ('The Edge Of The In Between') built on Dec  1 2013 17:55:00
      Writing library : libebml v1.3.0 + libmatroska v1.4.1
   Video #1
      ID : 1
      Format : AVC
      Format/Info : Advanced Video Codec
      Format profile : High@L4.1
      Format settings, CABAC : Yes
      Format settings, ReFrames : 5 frames
      Codec ID : V_MPEG4/ISO/AVC
      Duration : 48mn 46s
      Bit rate : 3 048 Kbps
      Width : 1 280 pixels
      Height : 720 pixels
      Display aspect ratio : 16:9
      Frame rate mode : Constant
      Frame rate : 25.000 fps
      Color space : YUV
      Chroma subsampling : 4:2:0
      Bit depth : 8 bits
      Scan type : Progressive
      Bits/(Pixel*Frame) : 0.132
      Stream size : 1.04 GiB (92%)
      Writing library : x264 core 142 r2479 dd79a61
      Encoding settings : cabac=1 / ref=5 / deblock=1:-2:-1 / analyse=0x3:0x113 / me=umh / subme=9 / psy=1 / psy_rd=1.00:0.00 / mixed_ref=1 / me_range=16 / chroma_me=1 / trellis=1 / 8x8dct=1 / cqm=0 / deadzone=21,11 / fast_pskip=1 / chroma_qp_offset=-2 / threads=12 / lookahead_threads=1 / sliced_threads=0 / nr=0 / decimate=1 / interlaced=0 / bluray_compat=0 / constrained_intra=0 / bframes=16 / b_pyramid=2 / b_adapt=1 / b_bias=0 / direct=1 / weightb=1 / open_gop=0 / weightp=2 / keyint=250 / keyint_min=23 / scenecut=40 / intra_refresh=0 / rc_lookahead=40 / rc=crf / mbtree=1 / crf=20.0 / qcomp=0.60 / qpmin=0 / qpmax=69 / qpstep=4 / ip_ratio=1.40 / aq=1:1.00
      Language : English
      Default : Yes
      Forced : No
   Audio #2
      ID : 2
      Format : AC-3
      Format/Info : Audio Coding 3
      Mode extension : CM (complete main)
      Format settings, Endianness : Big
      Codec ID : A_AC3
      Duration : 48mn 46s
      Bit rate mode : Constant
      Bit rate : 192 Kbps
      Channel(s) : 2 channels
      Channel positions : Front: L R
      Sampling rate : 48.0 KHz
      Bit depth : 16 bits
      Compression mode : Lossy
      Stream size : 67.0 MiB (6%)
      Default : Yes
      Forced : No

   
Торрент: Зарегистрирован [Май 3, 2015, 9:55 pm]
Телевидение Скачать торрент Магнет ссылка Смотреть онлайн
Скачать торрент
[ Размер 30.04 КБ / Просмотров 33 ]
Статус:
Проверен
---
.torrent скачан: 2 раз
Приватный: Нет (DHT включён)
Размер: 11.49 ГБ (12 340 684 799)
   
Аватара пользователя
Denny
 
Раздал: 7.49 ТБ
Скачал: 807.97 ГБ
Ратио: 1007.499
Сообщения: 1934
Зарегистрирован: Ноябрь 19, 2012, 10:49 pm
Откуда: Россия

Флаг страны: Russia

Вернуться в Телевидение



Кто сейчас на конференции

Сейчас эту тему просматривают: нет зарегистрированных пользователей и гости: 1

cron
Ресурс не содержит никакой другой информации, кроме описаний отдельных файлов или их групп, имеющихся у некоторых пользователей данного ресурса. Подтверждением наличия данных файлов у пользователя может иногда являться специальный набор значений, представляющих собой результаты применения односторонних хеш-функций к этим файлам или их группам. Данные наборы значений объединяются пользователями в единое целое и могут быть выложены ими вместе с описаниями имеющихся у них файлов. Администрация данного ресурса не имеет физической возможности убедиться, что описания файлов, выложенные нашими пользователями, равно как и созданные ими наборы хешей от файлов, соответствуют реальным файлам имеющимся у пользователей, а не созданы каким-либо иным способом.
cron
Яндекс.Метрика