Кат Бэнк / Cut Bank (ЛД) (2014) HDRip

Фильмы в формате DVD

Оценка торрента

5
0
Голосов нет
4
0
Голосов нет
3
0
Голосов нет
2
0
Голосов нет
1
0
Голосов нет
 
Всего голосов : 0

 Статистика раздачи 
Размер: 1.37 ГБ   |  Зарегистрирован: Май 24, 2015, 7:14 pm   |   .torrent скачан: 1 раз
Сидеров: 22  [ 0 байт/сек ]   Личеров: 0  [ 0 байт/сек ]  

Кат Бэнк / Cut Bank (ЛД) (2014) HDRip

Сообщение sergey » Май 24, 2015, 7:14 pm

Информация о фильме
Название: Кат Бэнк
Оригинальное название: Cut Bank
Год выхода: 2014
Жанр: Триллер
Режиссер: Мэтт Шекман
В ролях: Билли Боб Торнтон, Лиам Хемсворт, Тереза Палмер, Джон Малкович, Майкл Стулбарг, Брюс Дерн, Оливер Платт, Соня Саломяа, Эйден Лонгуорт, Пейтон Кеннеди

О фильме:
Дуэйн МакЛарен живет в городе Кат Бэнк, штат Монтана, работает в автомастерской, но в школе был звездой футбола. Поскольку городок буквально застрял во времени, Дуэйну очень хочется вырваться из него. Он предпринимает все возможное, чтобы покинуть Кат Бэнк, тем самым запуская череду событий, которые изменят не только его жизнь, но и сам город.

IMDB: 6,1/10
Кинопоиск: 6.327
Файл
Качество: HDRip
Видео: XviD, 720x304, 23.976 fps, 1703 Kbit/s
Аудио: Русский: AC-3, 48.0 KHz, 2 ch, 192 Kbps
Аудио: Французский: AC-3, 48.0 KHz, 2 ch, 192 Kbps
Продолжительность: 01:33:09
Перевод: Любительский (двухголосый) [ColdFilm]
Скачать: Сэмпл

General
Complete name                            : D:Cut.Bank.2014.DVO.HDRip.avi
Format                                   : AVI
Format/Info                              : Audio Video Interleave
File size                                : 1.37 GiB
Duration                                 : 1h 33mn
Overall bit rate                         : 2 101 Kbps
Writing application                      : VirtualDubMod 1.5.10.2 (build 2540/release)
Writing library                          : VirtualDubMod build 2540/release

Video
ID                                       : 0
Format                                   : MPEG-4 Visual
Format profile                           : Advanced Simple@L5
Format settings, BVOP                    : 2
Format settings, QPel                    : No
Format settings, GMC                     : No warppoints
Format settings, Matrix                  : Default (MPEG)
Codec ID                                 : XVID
Codec ID/Hint                            : XviD
Duration                                 : 1h 33mn
Bit rate                                 : 1 703 Kbps
Width                                    : 720 pixels
Height                                   : 304 pixels
Display aspect ratio                     : 2.35:1
Frame rate                               : 23.976 fps
Color space                              : YUV
Chroma subsampling                       : 4:2:0
Bit depth                                : 8 bits
Scan type                                : Progressive
Compression mode                         : Lossy
Bits/(Pixel*Frame)                       : 0.324
Stream size                              : 1.11 GiB (81%)
Writing library                          : XviD 1.2.1 (UTC 2008-12-04)

Audio #1
ID                                       : 1
Format                                   : AC-3
Format/Info                              : Audio Coding 3
Mode extension                           : CM (complete main)
Format settings, Endianness              : Big
Codec ID                                 : 2000
Duration                                 : 1h 33mn
Bit rate mode                            : Constant
Bit rate                                 : 192 Kbps
Channel(s)                               : 2 channels
Channel positions                        : Front: L R
Sampling rate                            : 48.0 KHz
Bit depth                                : 16 bits
Compression mode                         : Lossy
Stream size                              : 128 MiB (9%)
Alignment                                : Split accross interleaves
Interleave, duration                     : 42 ms (1.00 video frame)
Interleave, preload duration             : 500 ms

Audio #2
ID                                       : 2
Format                                   : AC-3
Format/Info                              : Audio Coding 3
Mode extension                           : CM (complete main)
Format settings, Endianness              : Big
Codec ID                                 : 2000
Duration                                 : 1h 33mn
Bit rate mode                            : Constant
Bit rate                                 : 192 Kbps
Channel(s)                               : 2 channels
Channel positions                        : Front: L R
Sampling rate                            : 48.0 KHz
Bit depth                                : 16 bits
Compression mode                         : Lossy
Stream size                              : 128 MiB (9%)
Alignment                                : Split accross interleaves
Interleave, duration                     : 42 ms (1.00 video frame)
Interleave, preload duration             : 500 ms





   
Торрент: Зарегистрирован [Май 24, 2015, 7:14 pm]
Видео DVD Скачать торрент Магнет ссылка Смотреть онлайн
Скачать торрент
[ Размер 55.25 КБ / Просмотров 13 ]
Статус:
Проверен
---
.torrent скачан: 1 раз
Приватный: Нет (DHT включён)
Размер: 1.37 ГБ (1 467 781 120)
   
Аватара пользователя
sergey
 
Раздал: 42.54 ТБ
Скачал: 198.69 ГБ
Ратио: 265.234
Сообщения: 5347
Зарегистрирован: Август 6, 2012, 2:11 pm
Откуда: СССР

Флаг страны: СССР

  • Похожие торренты
    Ответы
    Просмотры
    Последнее сообщение

Вернуться в Видео DVD



Кто сейчас на конференции

Сейчас эту тему просматривают: нет зарегистрированных пользователей и гости: 1

Ресурс не содержит никакой другой информации, кроме описаний отдельных файлов или их групп, имеющихся у некоторых пользователей данного ресурса. Подтверждением наличия данных файлов у пользователя может иногда являться специальный набор значений, представляющих собой результаты применения односторонних хеш-функций к этим файлам или их группам. Данные наборы значений объединяются пользователями в единое целое и могут быть выложены ими вместе с описаниями имеющихся у них файлов. Администрация данного ресурса не имеет физической возможности убедиться, что описания файлов, выложенные нашими пользователями, равно как и созданные ими наборы хешей от файлов, соответствуют реальным файлам имеющимся у пользователей, а не созданы каким-либо иным способом.
cron
Яндекс.Метрика