Уцелевшая / Выжившая / Survivor (2015) WEB-DLRip-AVC

Фильмы в формате WEBRip/Avi и т.д.

Оценка торрента

5
0
Голосов нет
4
0
Голосов нет
3
0
Голосов нет
2
0
Голосов нет
1
0
Голосов нет
 
Всего голосов : 0

 Статистика раздачи 
Размер: 1.67 ГБ   |  Зарегистрирован: Июнь 4, 2015, 11:14 am   |   .torrent скачан: 605 раз
Сидеров: 200  [ 0 байт/сек ]   Личеров: 65  [ 0 байт/сек ]  

Уцелевшая / Выжившая / Survivor (2015) WEB-DLRip-AVC

Сообщение sergey » Июнь 4, 2015, 11:14 am

Информация о фильме
Название: Уцелевшая (Выжившая)
Оригинальное название: Survivor
Год выпуска: 2015
Жанр: Боевик, триллер
Режиссер: Джеймс МакТиг
В ролях: Милла Йовович, Пирс Броснан, Дилан МакДермотт, Анджела Бассетт, Джеймс Д`Арси, Антония Томас, Фрэнсис де ла Тур, Роберт Форстер, Роджер Рис, Кори Джонсон

О фильме:
История закручена вокруг сотрудницы Госдепартамента США, которая была отправлена своим начальством в американское посольство в Лондоне, чтобы предотвратить проникновение в страну террористов. Однако все пошло не так, как планировалось: неожиданно героиня сама становится одной из главных подозреваемых. За преступления, в которых ее обвиняют — смертная казнь, поэтому она пускается в бега, чтобы доказать свою невиновность, а также предотвратить террористическую атаку на Нью-Йорк в канун Рождества...




Выпущено: США, Великобритания, Nu Image Films, Millennium Films, Winkler Films
Продолжительность: 01:36:24
Озвучивание: Любительское (одноголосое) Хихикающий доктор по переводу Enigma
Сведение звука: Sergei7721

Файл
Качество: WEB-DLRip (AVC)
Видео: MPEG-4 AVC, 1712 Кбит/с, 1024x426
Аудио: Русский, английский (АС3, 6 ch, 384 Кбит/с)
Cубтитры: Aнглийские

General
Unique ID : 228753604779240944776880338333520322984 (0xAC18577BD1CDB948B26050BB10C361A8)
Complete name : C:Survivor.2015.xixidok.WEB-DLRip.AVC.ExKinoRay.mkv
Format : Matroska
Format version : Version 4 / Version 2
File size : 1.67 GiB
Duration : 1h 36mn
Overall bit rate : 2 480 Kbps
Movie name : Survivor 2015 from ExKinoRay
Encoded date : UTC 2015-06-03 20:07:14
Writing application : mkvmerge v6.6.0 ('The Edge Of The In Between') built on Dec 1 2013 17:55:00
Writing library : libebml v1.3.0 + libmatroska v1.4.1
Attachment : Yes / Yes / Yes / Yes

Video
ID : 1
Format : AVC
Format/Info : Advanced Video Codec
Format profile : High@L4.1
Format settings, CABAC : Yes
Format settings, ReFrames : 10 frames
Codec ID : V_MPEG4/ISO/AVC
Duration : 1h 36mn
Bit rate : 1 712 Kbps
Width : 1 024 pixels
Height : 426 pixels
Display aspect ratio : 2.40:1
Frame rate mode : Constant
Frame rate : 23.976 fps
Color space : YUV
Chroma subsampling : 4:2:0
Bit depth : 8 bits
Scan type : Progressive
Bits/(Pixel*Frame) : 0.164
Stream size : 1.12 GiB (67%)
Title : Enigma
Writing library : x264 core 133 r2334 a3ac64b
Encoding settings : cabac=1 / ref=10 / deblock=1:-2:-2 / analyse=0x3:0x113 / me=umh / subme=10 / psy=1 / psy_rd=1.05:0.15 / mixed_ref=1 / me_range=32 / chroma_me=1 / trellis=2 / 8x8dct=1 / cqm=0 / deadzone=21,11 / fast_pskip=0 / chroma_qp_offset=-3 / threads=12 / lookahead_threads=2 / sliced_threads=0 / nr=0 / decimate=0 / interlaced=0 / bluray_compat=0 / constrained_intra=0 / bframes=9 / b_pyramid=2 / b_adapt=2 / b_bias=0 / direct=3 / weightb=1 / open_gop=0 / weightp=2 / keyint=240 / keyint_min=23 / scenecut=40 / intra_refresh=0 / rc=2pass / mbtree=0 / bitrate=1712 / ratetol=1.0 / qcomp=0.60 / qpmin=0 / qpmax=51 / qpstep=4 / cplxblur=20.0 / qblur=0.5 / ip_ratio=1.40 / pb_ratio=1.30 / aq=1:1.00
Default : Yes
Forced : No
Color primaries : BT.709
Transfer characteristics : BT.709
Matrix coefficients : BT.709

Audio #1
ID : 2
Format : AC-3
Format/Info : Audio Coding 3
Mode extension : CM (complete main)
Format settings, Endianness : Big
Codec ID : A_AC3
Duration : 1h 36mn
Bit rate mode : Constant
Bit rate : 384 Kbps
Channel(s) : 6 channels
Channel positions : Front: L C R, Side: L R, LFE
Sampling rate : 48.0 KHz
Bit depth : 16 bits
Compression mode : Lossy
Stream size : 265 MiB (15%)
Title : xixidok
Language : Russian
Default : No
Forced : No

Audio #2
ID : 3
Format : AC-3
Format/Info : Audio Coding 3
Mode extension : CM (complete main)
Format settings, Endianness : Big
Codec ID : A_AC3
Duration : 1h 36mn
Bit rate mode : Constant
Bit rate : 384 Kbps
Channel(s) : 6 channels
Channel positions : Front: L C R, Side: L R, LFE
Sampling rate : 48.0 KHz
Bit depth : 16 bits
Compression mode : Lossy
Stream size : 265 MiB (15%)
Language : English
Default : No
Forced : No

Text #1
ID : 4
Format : UTF-8
Codec ID : S_TEXT/UTF8
Codec ID/Info : UTF-8 Plain Text
Title : Full
Language : English
Default : No
Forced : No

Text #2
ID : 5
Format : UTF-8
Codec ID : S_TEXT/UTF8
Codec ID/Info : UTF-8 Plain Text
Title : SDH
Language : English
Default : No
Forced : No

Menu
00:00:00.000 : en:1
00:03:33.000 : en:2
00:11:46.000 : en:3
00:17:49.000 : en:4
00:23:19.000 : en:5
00:29:52.000 : en:6
00:36:33.000 : en:7
00:42:02.000 : en:8
00:49:28.000 : en:9
00:54:29.000 : en:10
01:00:21.000 : en:11
01:05:57.000 : en:12
01:11:46.000 : en:13
01:17:56.000 : en:14
01:22:49.000 : en:15
01:26:09.000 : en:16



   
Торрент: Зарегистрирован [Июнь 4, 2015, 11:14 am]
Видео WEBRip Скачать торрент Магнет ссылка Смотреть онлайн
Скачать торрент
[ Размер 17.28 КБ / Просмотров 12 ]
Статус:
Проверен
---
.torrent скачан: 605 раз
Приватный: Нет (DHT включён)
Размер: 1.67 ГБ (1 793 025 615)
   
Аватара пользователя
sergey
 
Раздал: 42.54 ТБ
Скачал: 198.69 ГБ
Ратио: 265.234
Сообщения: 5348
Зарегистрирован: Август 6, 2012, 2:11 pm
Откуда: СССР

Флаг страны: СССР

  • Похожие торренты
    Ответы
    Просмотры
    Последнее сообщение

Вернуться в Видео WEBRip



Кто сейчас на конференции

Сейчас эту тему просматривают: нет зарегистрированных пользователей и гости: 1

Ресурс не содержит никакой другой информации, кроме описаний отдельных файлов или их групп, имеющихся у некоторых пользователей данного ресурса. Подтверждением наличия данных файлов у пользователя может иногда являться специальный набор значений, представляющих собой результаты применения односторонних хеш-функций к этим файлам или их группам. Данные наборы значений объединяются пользователями в единое целое и могут быть выложены ими вместе с описаниями имеющихся у них файлов. Администрация данного ресурса не имеет физической возможности убедиться, что описания файлов, выложенные нашими пользователями, равно как и созданные ими наборы хешей от файлов, соответствуют реальным файлам имеющимся у пользователей, а не созданы каким-либо иным способом.
cron
Яндекс.Метрика