Третий лишний 2 / Ted 2 (2015) WEBRip

Фильмы в формате WEBRip/Avi и т.д.

Оценка торрента

5
0
Голосов нет
4
0
Голосов нет
3
0
Голосов нет
2
0
Голосов нет
1
0
Голосов нет
 
Всего голосов : 0

 Статистика раздачи 
Размер: 747.49 МБ   |  Зарегистрирован: Июль 16, 2015, 4:29 pm   |   .torrent скачан: 1995 раз
Сидеров: 1278  [ 0 байт/сек ]   Личеров: 324  [ 0 байт/сек ]  

Третий лишний 2 / Ted 2 (2015) WEBRip

Сообщение sergey » Июль 16, 2015, 4:29 pm

Информация о фильме
Название: Третий лишний 2
Оригинальное название: Ted 2
Год выхода: 2015
Жанр: комедия
Режиссер: Сет МакФарлейн
В ролях: Марк Уолберг, Сет МакФарлейн, Аманда Сайфред, Джованни Рибизи, Джон Слэттери, Морган Фриман, Джессика Барт, Сэм Дж. Джонс, Патрик Варбертон, Майкл Дорн

О фильме: Плюшевый беспредельщик продолжает сводить с ума чопорную интеллигенцию. На этот раз говорящий медвежонок с большим эго и его длинноногая блондинка решили завести ребёнка. Там, где не постаралась природа, на помощь приходят звёздные доноры, городские сумасшедшие и верный друг Джонни. Он только что расстался с Лори и готов к новым авантюрам. Третий здесь совсем не лишний.



Выпущено: США / Universal Pictures, Bluegrass Films, Fuzzy Door Productions
Продолжительность: 01:54:53
Озвучивание: Дублированное [Чистый звук]
Примечание: Присутствуют около 4-х минут вставок звука с TS и вшитые корейские субтитры.

Файл
Формат: AVI (XviD)
Качество: WEBRip
Видео: 768 kb/s, 640x272
Аудио: AC3, 128 kb/s (2 ch)
Размер: 747 MB
Скачать: Сэмпл
General
Complete name : C:UsersuserDesktopMedved.2.2015.D.WEBRip.746MB.avi
Format : AVI
Format/Info : Audio Video Interleave
File size : 747 MiB
Duration : 1h 55mn
Overall bit rate : 905 Kbps
Writing application : VirtualDubMod 1.5.10.3 | http://www.virtualdub-fr.org || (build 2550/release)
Writing library : VirtualDubMod build 2550/release

Video
ID : 0
Format : MPEG-4 Visual
Format profile : Advanced Simple@L5
Format settings, BVOP : 2
Format settings, QPel : No
Format settings, GMC : No warppoints
Format settings, Matrix : Default (MPEG)
Codec ID : XVID
Codec ID/Hint : XviD
Duration : 1h 55mn
Bit rate : 768 Kbps
Width : 640 pixels
Height : 272 pixels
Display aspect ratio : 2.35:1
Frame rate : 23.976 fps
Color space : YUV
Chroma subsampling : 4:2:0
Bit depth : 8 bits
Scan type : Progressive
Compression mode : Lossy
Bits/(Pixel*Frame) : 0.184
Stream size : 634 MiB (85%)
Writing library : XviD 1.2.1 (UTC 2008-12-04)

Audio
ID : 1
Format : AC-3
Format/Info : Audio Coding 3
Mode extension : CM (complete main)
Format settings, Endianness : Big
Codec ID : 2000
Duration : 1h 55mn
Bit rate mode : Constant
Bit rate : 128 Kbps
Channel(s) : 2 channels
Channel positions : Front: L R
Sampling rate : 48.0 KHz
Bit depth : 16 bits
Compression mode : Lossy
Stream size : 106 MiB (14%)
Alignment : Split accross interleaves
Interleave, duration : 42 ms (1.00 video frame)
Interleave, preload duration : 500 ms

   
Торрент: Зарегистрирован [Июль 16, 2015, 4:29 pm]
Видео WEBRip Скачать торрент Магнет ссылка Смотреть онлайн
Скачать торрент
[ Размер 15.5 КБ / Просмотров 13 ]
Статус:
Проверен
---
.torrent скачан: 1995 раз
Приватный: Нет (DHT включён)
Размер: 747.49 МБ (783 800 320)
   
Аватара пользователя
sergey
 
Раздал: 42.54 ТБ
Скачал: 198.69 ГБ
Ратио: 265.234
Сообщения: 5338
Зарегистрирован: Август 6, 2012, 2:11 pm
Откуда: СССР

Флаг страны: СССР

  • Похожие торренты
    Ответы
    Просмотры
    Последнее сообщение

Вернуться в Видео WEBRip



Кто сейчас на конференции

Сейчас эту тему просматривают: нет зарегистрированных пользователей и гости: 1

Ресурс не содержит никакой другой информации, кроме описаний отдельных файлов или их групп, имеющихся у некоторых пользователей данного ресурса. Подтверждением наличия данных файлов у пользователя может иногда являться специальный набор значений, представляющих собой результаты применения односторонних хеш-функций к этим файлам или их группам. Данные наборы значений объединяются пользователями в единое целое и могут быть выложены ими вместе с описаниями имеющихся у них файлов. Администрация данного ресурса не имеет физической возможности убедиться, что описания файлов, выложенные нашими пользователями, равно как и созданные ими наборы хешей от файлов, соответствуют реальным файлам имеющимся у пользователей, а не созданы каким-либо иным способом.
cron
Яндекс.Метрика