Восставшие мертвецы / Dead Rising: Watchtower (2015) HDRip-AVC | L2

Фильмы в формате DVD

Оценка торрента

5
0
Голосов нет
4
0
Голосов нет
3
0
Голосов нет
2
0
Голосов нет
1
0
Голосов нет
 
Всего голосов : 0

 Статистика раздачи 
Размер: 2.03 ГБ   |  Зарегистрирован: Июль 28, 2015, 8:47 pm   |   .torrent скачан: 82 раз
Сидеров: 293  [ 0 байт/сек ]   Личеров: 128  [ 0 байт/сек ]  

Восставшие мертвецы / Dead Rising: Watchtower (2015) HDRip-AVC | L2

Сообщение sergey » Июль 28, 2015, 8:47 pm

Восставшие мертвецы / Dead Rising: Watchtower (2015) HDRip-AVC | L2


Производство: США / Legendary Digital Media, Contradiction Films, Di Bonaventura Pictures
Жанр: ужасы
Продолжительность: 01:58:07
Перевод: Любительский (двухголосый закадровый)
Субтитры: отсутствуют

Режиссер: Зак Липовски
Актеры: Джесси Меткалф, Меган Ори, Роб Риггл, Вирджиния Мэдсен, Киган Коннор Трэйси

Описание:
В Штатах объявился вирус, превращающий людей в зомби, но властям удалось подавить вспышку эпидемии, создав вакцину под названием Zombrex – она помогает не обращаться в кровожадного мертвеца даже тем, кого укусили зараженные. Однако очередная партия Zombrex оказывается неэффективной и возле гигантского стадиона Metrodome начинается эпидемия. В ее эпицентре оказывается журналист Чейз Картер (Джесси Меткалф), который продолжает репортаж, несмотря на хаос творящийся вокруг.



Качество видео: HDRip-AVC
Видео: AVC, 1024x432 (2.35:1), 23.976 fps, 1 883 Kbps (0.178 bit/pixel)
Аудио #1: AC-3, 48.0 KHz, 2 ch, 192 Kbps, CBR (Russian)
Аудио #2: AC-3, 48.0 KHz, 6 ch, 384 Kbps, CBR (English)
Сэмпл


Формат : Matroska
Версия формата : Version 2
Размер файла : 2,03 Гбайт
Продолжительность : 1 ч. 58 м.
Общий поток : 2460 Кбит/сек
Дата кодирования : UTC 2015-07-28 11:28:30
Программа кодирования : mkvmerge v5.3.0 ('I could have danced') built on Feb 9 2012 10:38:07
Библиотека кодирования : libebml v1.2.3 + libmatroska v1.3.0
Attachment : Yes

Видео
Идентификатор : 1
Формат : AVC
Формат/Информация : Advanced Video Codec
Профиль формата : High@L4.1
Параметр CABAC формата : Да
Параметр ReFrames формата : 10 кадров
Идентификатор кодека : V_MPEG4/ISO/AVC
Продолжительность : 1 ч. 58 м.
Битрейт : 1883 Кбит/сек
Ширина : 1024 пикселя
Высота : 432 пикселя
Соотношение сторон : 2,40:1
Режим частоты кадров : Постоянный
Частота кадров : 23,976 кадра/сек
Цветовое пространство : YUV
Субдискретизация насыщенности : 4:2:0
Битовая глубина : 8 бит
Тип развёртки : Прогрессивная
Бит/(Пиксели*Кадры) : 0.178
Размер потока : 1,51 Гбайт (75%)
Библиотека кодирования : x264 core 146 r2538 121396c
Настройки программы : cabac=1 / ref=10 / deblock=1:-3:-3 / analyse=0x3:0x133 / me=umh / subme=10 / psy=1 / psy_rd=1.00:0.10 / mixed_ref=1 / me_range=32 / chroma_me=1 / trellis=2 / 8x8dct=1 / cqm=0 / deadzone=21,11 / fast_pskip=0 / chroma_qp_offset=-3 / threads=12 / lookahead_threads=2 / sliced_threads=0 / nr=0 / decimate=0 / interlaced=0 / bluray_compat=0 / constrained_intra=0 / bframes=8 / b_pyramid=2 / b_adapt=2 / b_bias=0 / direct=3 / weightb=1 / open_gop=0 / weightp=2 / keyint=240 / keyint_min=23 / scenecut=40 / intra_refresh=0 / rc=2pass / mbtree=0 / bitrate=1883 / ratetol=1.0 / qcomp=0.60 / qpmin=0 / qpmax=69 / qpstep=4 / cplxblur=20.0 / qblur=0.5 / ip_ratio=1.40 / pb_ratio=1.30 / aq=1:1.20
Язык : English
Default : Да
Forced : Нет

Аудио #1
Идентификатор : 2
Формат : AC-3
Формат/Информация : Audio Coding 3
Расширение режима : CM (complete main)
Параметр Endianness формата : Big
Идентификатор кодека : A_AC3
Продолжительность : 1 ч. 58 м.
Вид битрейта : Постоянный
Битрейт : 192 Кбит/сек
Каналы : 2 канала
Расположение каналов : Front: L R
Частота : 48,0 КГц
Битовая глубина : 16 бит
Метод сжатия : С потерями
Размер потока : 162 Мбайт (8%)
Язык : Russian
Default : Да
Forced : Нет

Аудио #2
Идентификатор : 3
Формат : AC-3
Формат/Информация : Audio Coding 3
Расширение режима : CM (complete main)
Параметр Endianness формата : Big
Идентификатор кодека : A_AC3
Продолжительность : 1 ч. 58 м.
Вид битрейта : Постоянный
Битрейт : 384 Кбит/сек
Каналы : 6 каналов
Расположение каналов : Front: L C R, Side: L R, LFE
Частота : 48,0 КГц
Битовая глубина : 16 бит
Метод сжатия : С потерями
Размер потока : 324 Мбайт (16%)
Язык : English
Default : Нет
Forced : Нет

Меню
00:00:00.000 : en:00:00:00.000
00:15:38.437 : en:00:15:38.437
00:31:02.527 : en:00:31:02.527
00:47:07.116 : en:00:47:07.116
00:58:40.267 : en:00:58:40.267
01:18:10.436 : en:01:18:10.436
01:35:17.337 : en:01:35:17.337
01:49:46.580 : en:01:49:46.580


   
Торрент: Зарегистрирован [Июль 28, 2015, 8:47 pm]
Видео DVD Скачать торрент Магнет ссылка Смотреть онлайн
Скачать торрент
[ Размер 10.88 КБ / Просмотров 10 ]
Статус:
Проверен
---
.torrent скачан: 82 раз
Приватный: Нет (DHT включён)
Размер: 2.03 ГБ (2 179 175 483)
   
Аватара пользователя
sergey
 
Раздал: 42.54 ТБ
Скачал: 198.69 ГБ
Ратио: 265.234
Сообщения: 5348
Зарегистрирован: Август 6, 2012, 2:11 pm
Откуда: СССР

Флаг страны: СССР

  • Похожие торренты
    Ответы
    Просмотры
    Последнее сообщение

Вернуться в Видео DVD



Кто сейчас на конференции

Сейчас эту тему просматривают: нет зарегистрированных пользователей и гости: 1

Ресурс не содержит никакой другой информации, кроме описаний отдельных файлов или их групп, имеющихся у некоторых пользователей данного ресурса. Подтверждением наличия данных файлов у пользователя может иногда являться специальный набор значений, представляющих собой результаты применения односторонних хеш-функций к этим файлам или их группам. Данные наборы значений объединяются пользователями в единое целое и могут быть выложены ими вместе с описаниями имеющихся у них файлов. Администрация данного ресурса не имеет физической возможности убедиться, что описания файлов, выложенные нашими пользователями, равно как и созданные ими наборы хешей от файлов, соответствуют реальным файлам имеющимся у пользователей, а не созданы каким-либо иным способом.
cron
Яндекс.Метрика