Убрать из друзей / Unfriended (2015) WEB-DLRip-AVC

Фильмы в формате WEBRip/Avi и т.д.

Оценка торрента

5
0
Голосов нет
4
0
Голосов нет
3
0
Голосов нет
2
0
Голосов нет
1
0
Голосов нет
 
Всего голосов : 0

 Статистика раздачи 
Размер: 1.46 ГБ   |  Зарегистрирован: Август 1, 2015, 4:57 pm   |   .torrent скачан: 910 раз
Сидеров: 974  [ 0 байт/сек ]   Личеров: 177  [ 0 байт/сек ]  

Убрать из друзей / Unfriended (2015) WEB-DLRip-AVC

Сообщение sergey » Август 1, 2015, 4:57 pm

Информация о фильме
Название: Убрать из друзей
Оригинальное название: Unfriended
Год выхода: 2015
Жанр:ужасы, триллер
Режиссер: Леван Габриадзе
В ролях: Шелли Хенниг, Моусес Сторм, Рени Олстэд, Уилл Пельтц, Джейкоб Высоцки, Кортни, Хэлверсон, Хезер Соссамэн, Мэттью Борер, Мики Ривер, Кэл Барнс

О фильме: Обычный вечер после школы. К скайпу влюбленных Блэр и Митча подключаются друзья — Адам, Джес, Кен и Вэл… и кто-то седьмой с ником Billy227. Все уверены, что это компьютерный глюк, пока неизвестный не начинает им писать. Билли хочет знать, кто выложил в Сеть скандальное видео с их одноклассницей Лорой Барнс, из-за которого девушка покончила с собой. И он готов выяснить это любой ценой. Друзьям кажется, что можно просто выйти из чата, но это только кажется.


Выпущено: США, Россия , Bazelevs Production, Blumhouse Productions
Продолжительность: 01:22:01
Озвучивание: Дублированное [iTunes]

Примечание: Русский локализованный видеоряд.

Файл
Кодек: х264
Качество: WEB-DLRip-AVC
Видео: 1024x576 (16:9), 24,000 fps, x264 ~ 2159 kbps avg, 0.153 bit/pixel
Аудио: 48,0 kHz, Audio Coding 3, 6 ch, ~384 kbps avg
Общее
Уникальный идентификатор : 200365776795930898703344787941153527757 (0x96BD0B80EFD156EDB1492A79362757CD)
Полное имя : D:ВидеоUbrat.1z.Dru3ey.2015.D.WEB-DLRip(AVC) by Vovan366(ExKinoRay) (1).mkv
Формат : Matroska
Версия формата : Version 4 / Version 2
Размер файла : 1,46 Гбайт
Продолжительность : 1 ч. 22 м.
Общий поток : 2545 Кбит/сек
Название фильма : Убрать из друзей 2015.by Vovan366(ExKinoRay)
Дата кодирования : UTC 2015-07-31 16:19:10
Программа кодирования : mkvmerge v8.2.0 ('World of Adventure') 64bit
Библиотека кодирования : libebml v1.3.1 + libmatroska v1.4.2
DURATION : 01:22:01.504000000
NUMBER_OF_FRAMES : 153797
NUMBER_OF_BYTES : 236232192
_STATISTICS_WRITING_APP : mkvmerge v8.2.0 ('World of Adventure') 64bit
_STATISTICS_WRITING_DATE_UTC : 2015-07-31 16:19:10
_STATISTICS_TAGS : BPS DURATION NUMBER_OF_FRAMES NUMBER_OF_BYTES
Видео
Идентификатор : 1
Формат : AVC
Формат/Информация : Advanced Video Codec
Профиль формата : High@L4.1
Параметр CABAC формата : Да
Параметр ReFrames формата : 9 кадров
Идентификатор кодека : V_MPEG4/ISO/AVC
Продолжительность : 1 ч. 22 м.
Битрейт : 2159 Кбит/сек
Ширина : 1024 пикселя
Высота : 576 пикселей
Соотношение сторон : 16:9
Режим частоты кадров : Постоянный
Частота кадров : 24,000 кадра/сек
Цветовое пространство : YUV
Субдискретизация насыщенности : 4:2:0
Битовая глубина : 8 бит
Тип развёртки : Прогрессивная
Бит/(Пиксели*Кадры) : 0.153
Размер потока : 1,21 Гбайт (83%)
Заголовок : by Vovan366(ExKinoRay)
Библиотека кодирования : x264 core 130 r2273 b3065e6
Настройки программы : cabac=1 / ref=9 / deblock=1:-2:-2 / analyse=0x3:0x133 / me=umh / subme=10 / psy=1 / psy_rd=1.00:0.15 / mixed_ref=1 / me_range=32 / chroma_me=1 / trellis=2 / 8x8dct=1 / cqm=0 / deadzone=21,11 / fast_pskip=0 / chroma_qp_offset=-3 / threads=6 / lookahead_threads=1 / sliced_threads=0 / nr=0 / decimate=0 / interlaced=0 / bluray_compat=0 / constrained_intra=0 / bframes=9 / b_pyramid=2 / b_adapt=2 / b_bias=0 / direct=3 / weightb=1 / open_gop=0 / weightp=2 / keyint=250 / keyint_min=23 / scenecut=40 / intra_refresh=0 / rc=2pass / mbtree=0 / bitrate=2159 / ratetol=1.0 / qcomp=0.60 / qpmin=0 / qpmax=69 / qpstep=4 / cplxblur=20.0 / qblur=0.5 / ip_ratio=1.40 / pb_ratio=1.30 / aq=1:1.00
Default : Да
Forced : Нет
Аудио
Идентификатор : 2
Формат : AC-3
Формат/Информация : Audio Coding 3
Расширение режима : CM (complete main)
Параметр Endianness формата : Big
Идентификатор кодека : A_AC3
Продолжительность : 1 ч. 22 м.
Вид битрейта : Постоянный
Битрейт : 384 Кбит/сек
Каналы : 6 каналов
Расположение каналов : Front: L C R, Side: L R, LFE
Частота : 48,0 КГц
Битовая глубина : 16 бит
Метод сжатия : С потерями
Размер потока : 225 Мбайт (15%)
Язык : Russian
Default : Да
Forced : Нет


   
Торрент: Зарегистрирован [Август 1, 2015, 4:57 pm]
Видео WEBRip Скачать торрент Магнет ссылка Смотреть онлайн
Скачать торрент
[ Размер 15.28 КБ / Просмотров 6 ]
Статус:
Проверен
---
.torrent скачан: 910 раз
Приватный: Нет (DHT включён)
Размер: 1.46 ГБ (1 565 716 143)
   
Аватара пользователя
sergey
 
Раздал: 42.54 ТБ
Скачал: 198.69 ГБ
Ратио: 265.234
Сообщения: 5347
Зарегистрирован: Август 6, 2012, 2:11 pm
Откуда: СССР

Флаг страны: СССР

  • Похожие торренты
    Ответы
    Просмотры
    Последнее сообщение

Вернуться в Видео WEBRip



Кто сейчас на конференции

Сейчас эту тему просматривают: нет зарегистрированных пользователей и гости: 1

Ресурс не содержит никакой другой информации, кроме описаний отдельных файлов или их групп, имеющихся у некоторых пользователей данного ресурса. Подтверждением наличия данных файлов у пользователя может иногда являться специальный набор значений, представляющих собой результаты применения односторонних хеш-функций к этим файлам или их группам. Данные наборы значений объединяются пользователями в единое целое и могут быть выложены ими вместе с описаниями имеющихся у них файлов. Администрация данного ресурса не имеет физической возможности убедиться, что описания файлов, выложенные нашими пользователями, равно как и созданные ими наборы хешей от файлов, соответствуют реальным файлам имеющимся у пользователей, а не созданы каким-либо иным способом.
cron
Яндекс.Метрика