Безумный Макс: Дорога ярости / Mad Max: Fury Road (2015) BDRip-AVC

Фильмы в формате DVD

Оценка торрента

5
1
100%
4
0
Голосов нет
3
0
Голосов нет
2
0
Голосов нет
1
0
Голосов нет
 
Всего голосов : 1

 Статистика раздачи 
Размер: 1.46 ГБ   |  Зарегистрирован: Август 29, 2015, 8:48 am   |   .torrent скачан: 1721 раз
Сидеров: 560  [ 0 байт/сек ]   Личеров: 30  [ 0 байт/сек ]  

Безумный Макс: Дорога ярости / Mad Max: Fury Road (2015) BDRip-AVC

Сообщение sergey » Август 29, 2015, 8:48 am

Информация о фильме
Название: Безумный Макс: Дорога ярости
Оригинальное название: Mad Max: Fury Road
Год выхода: 2015
Жанр: Фантастика, боевик, триллер, приключения, постапокалипсис
Режиссер: Джордж Миллер
В ролях: Том Харди, Шарлиз Терон, Николас Холт, Хью Кияс-Бёрн, Джош Хелман, Нэйтан Джонс, Зои Кравиц, Роузи Хантингтон-Уайтли, Райли Кио, Эбби Ли, Кортни Итон, Джон Ховард, Ричард Картер, Иота, Энгус Сэмпсон, Дженнифер Хэйгэн, Меган Гэйл, Мелисса Яффер, Мелита Юришич, Джиллиан Джонс

О фильме:
Вскоре после отмщения за смерть жены и сына, Макс Рокатански покинул ряды «Основного силового патруля» и уехал в глушь, где скитается в одиночестве, пока мир медленно падает в последствии нефтяного кризиса и глобальной войны. Не имея ничего, кроме своей машины «Перехватчик», Максу предстоит научиться, как выжить в пост-апокалиптической пустоши и сражаться с жестокими, безжалостными воинами, которые населяют её.



Страна: Австралия, США
Студия: Kennedy Miller Productions, Village Roadshow Pictures
Продолжительность: 02:00:21
Перевод: Профессиональный (полное дублирование) [Blu-Ray CEE]

Файл
Кодек: x264
Качество: BDRip-AVC (Mad.Max.Fury.Road.2015.BDRemux.1080p)
Видео: 1024x426 (2,40:1), 23,976 fps, x264 ~ 1541 kbps avg, 0.147 bit/pixel
Звук: 48,0 kHz, Audio Coding 3, 2 ch, ~192 kbps avg
Субтитры: Русские (полные (4 вида), форсированные), Украинские (форсированные), Английские (полные (2 вида), SDH (2 вида)). (Вшитые, отключаемые / UTF-8)

Семпл
Общее
Уникальный идентификатор : 253686357108988888495610599635950576909 (0xBEDA3714FABF8E42B89042F1A22D250D)
Полное имя : D:ВидеоMad.Max.Fury.Road.2015.BDRip-AVC by Vovan366(ExKinoRay) ..mkv
Формат : Matroska
Версия формата : Version 4 / Version 2
Размер файла : 1,46 Гбайт
Продолжительность : 2 ч. 0 м.
Общий поток : 1735 Кбит/сек
Название фильма : Mad.Max.Fury.Road.2015.BDRip-AVC by Vovan366(ExKinoRay)
Дата кодирования : UTC 2015-08-28 16:20:46
Программа кодирования : mkvmerge v8.3.0 ('Over the Horizon') 64bit
Библиотека кодирования : libebml v1.3.1 + libmatroska v1.4.2
DURATION : 01:53:46.200000000
NUMBER_OF_FRAMES : 11
NUMBER_OF_BYTES : 499
_STATISTICS_WRITING_APP : mkvmerge v8.3.0 ('Over the Horizon') 64bit
_STATISTICS_WRITING_DATE_UTC : 2015-08-28 16:20:46
_STATISTICS_TAGS : BPS DURATION NUMBER_OF_FRAMES NUMBER_OF_BYTES
Видео
Идентификатор : 1
Формат : AVC
Формат/Информация : Advanced Video Codec
Профиль формата : High@L4.1
Параметр CABAC формата : Да
Параметр ReFrames формата : 9 кадров
Идентификатор кодека : V_MPEG4/ISO/AVC
Продолжительность : 2 ч. 0 м.
Битрейт : 1541 Кбит/сек
Ширина : 1024 пикселя
Высота : 426 пикселей
Соотношение сторон : 2,40:1
Режим частоты кадров : Постоянный
Частота кадров : 23,976 кадра/сек
Цветовое пространство : YUV
Субдискретизация насыщенности : 4:2:0
Битовая глубина : 8 бит
Тип развёртки : Прогрессивная
Бит/(Пиксели*Кадры) : 0.147
Размер потока : 1,27 Гбайт (87%)
Заголовок : by Vovan366(ExKinoRay)
Библиотека кодирования : x264 core 130 r2273 b3065e6
Настройки программы : cabac=1 / ref=9 / deblock=1:-2:-2 / analyse=0x3:0x133 / me=umh / subme=10 / psy=1 / psy_rd=1.00:0.15 / mixed_ref=1 / me_range=32 / chroma_me=1 / trellis=2 / 8x8dct=1 / cqm=0 / deadzone=21,11 / fast_pskip=0 / chroma_qp_offset=-3 / threads=6 / lookahead_threads=1 / sliced_threads=0 / nr=0 / decimate=0 / interlaced=0 / bluray_compat=0 / constrained_intra=0 / bframes=9 / b_pyramid=2 / b_adapt=2 / b_bias=0 / direct=3 / weightb=1 / open_gop=0 / weightp=2 / keyint=240 / keyint_min=23 / scenecut=40 / intra_refresh=0 / rc=2pass / mbtree=0 / bitrate=1541 / ratetol=1.0 / qcomp=0.60 / qpmin=0 / qpmax=69 / qpstep=4 / cplxblur=20.0 / qblur=0.5 / ip_ratio=1.40 / pb_ratio=1.30 / aq=1:1.00
Default : Да
Forced : Нет
Аудио
Идентификатор : 2
Формат : AC-3
Формат/Информация : Audio Coding 3
Расширение режима : CM (complete main)
Параметр Endianness формата : Big
Идентификатор кодека : A_AC3
Продолжительность : 2 ч. 0 м.
Вид битрейта : Постоянный
Битрейт : 192 Кбит/сек
Каналы : 2 канала
Расположение каналов : Front: L R
Частота : 48,0 КГц
Битовая глубина : 16 бит
Метод сжатия : С потерями
Размер потока : 165 Мбайт (11%)
Заголовок : Blu-Ray CEE
Язык : Russian
Default : Да
Forced : Нет
Текст #1
Идентификатор : 3
Формат : UTF-8
Идентификатор кодека : S_TEXT/UTF8
Идентификатор кодека/Информация : UTF-8 Plain Text
Заголовок : For
Язык : Russian
Default : Да
Forced : Нет
Текст #2
Идентификатор : 4
Формат : UTF-8
Идентификатор кодека : S_TEXT/UTF8
Идентификатор кодека/Информация : UTF-8 Plain Text
Язык : English
Default : Нет
Forced : Нет
Текст #3
Идентификатор : 5
Формат : UTF-8
Идентификатор кодека : S_TEXT/UTF8
Идентификатор кодека/Информация : UTF-8 Plain Text
Заголовок : BD
Язык : Russian
Default : Нет
Forced : Нет
Текст #4
Идентификатор : 6
Формат : UTF-8
Идентификатор кодека : S_TEXT/UTF8
Идентификатор кодека/Информация : UTF-8 Plain Text
Язык : English
Default : Нет
Forced : Нет
Текст #5
Идентификатор : 7
Формат : UTF-8
Идентификатор кодека : S_TEXT/UTF8
Идентификатор кодека/Информация : UTF-8 Plain Text
Язык : English
Default : Нет
Forced : Нет
Текст #6
Идентификатор : 8
Формат : UTF-8
Идентификатор кодека : S_TEXT/UTF8
Идентификатор кодека/Информация : UTF-8 Plain Text
Язык : English
Default : Нет
Forced : Нет
Текст #7
Идентификатор : 9
Формат : UTF-8
Идентификатор кодека : S_TEXT/UTF8
Идентификатор кодека/Информация : UTF-8 Plain Text
Заголовок : Матвеев
Язык : Russian
Default : Нет
Forced : Нет
Текст #8
Идентификатор : 10
Формат : UTF-8
Идентификатор кодека : S_TEXT/UTF8
Идентификатор кодека/Информация : UTF-8 Plain Text
Заголовок : Notabenoid)
Язык : Russian
Default : Нет
Forced : Нет
Текст #9
Идентификатор : 11
Формат : UTF-8
Идентификатор кодека : S_TEXT/UTF8
Идентификатор кодека/Информация : UTF-8 Plain Text
Заголовок : Notabenoid.2
Язык : Russian
Default : Нет
Forced : Нет
Текст #10
Идентификатор : 12
Формат : UTF-8
Идентификатор кодека : S_TEXT/UTF8
Идентификатор кодека/Информация : UTF-8 Plain Text
Заголовок : For
Язык : Ukrainian
Default : Нет
Forced : Нет
Меню
00:00:00.000 : en:00:00:00.000
00:10:42.475 : en:00:10:42.475
00:19:06.437 : en:00:19:06.437
00:30:12.310 : en:00:30:12.310
00:42:55.615 : en:00:42:55.615
00:49:33.345 : en:00:49:33.345
00:59:55.175 : en:00:59:55.175
01:13:02.545 : en:01:13:02.545
01:22:08.924 : en:01:22:08.924
01:30:02.731 : en:01:30:02.731
01:40:39.867 : en:01:40:39.867
01:49:12.546 : en:01:49:12.546
01:53:06.279 : en:01:53:06.279


]
   
Торрент: Зарегистрирован [Август 29, 2015, 8:48 am]
Видео DVD Скачать торрент Магнет ссылка Смотреть онлайн
Скачать торрент
[ Размер 15.29 КБ / Просмотров 6 ]
Статус:
Проверен
---
.torrent скачан: 1721 раз
Приватный: Нет (DHT включён)
Размер: 1.46 ГБ (1 566 609 366)
   
Аватара пользователя
sergey
 
Раздал: 42.54 ТБ
Скачал: 198.69 ГБ
Ратио: 265.234
Сообщения: 5343
Зарегистрирован: Август 6, 2012, 2:11 pm
Откуда: СССР

Флаг страны: СССР

Вернуться в Видео DVD



Кто сейчас на конференции

Сейчас эту тему просматривают: нет зарегистрированных пользователей и гости: 1

Ресурс не содержит никакой другой информации, кроме описаний отдельных файлов или их групп, имеющихся у некоторых пользователей данного ресурса. Подтверждением наличия данных файлов у пользователя может иногда являться специальный набор значений, представляющих собой результаты применения односторонних хеш-функций к этим файлам или их группам. Данные наборы значений объединяются пользователями в единое целое и могут быть выложены ими вместе с описаниями имеющихся у них файлов. Администрация данного ресурса не имеет физической возможности убедиться, что описания файлов, выложенные нашими пользователями, равно как и созданные ими наборы хешей от файлов, соответствуют реальным файлам имеющимся у пользователей, а не созданы каким-либо иным способом.
cron
Яндекс.Метрика