Вне/себя / Self/less (2015) WEB-DLRip-AVC

Фильмы в формате WEBRip/Avi и т.д.

Оценка торрента

5
0
Голосов нет
4
0
Голосов нет
3
0
Голосов нет
2
0
Голосов нет
1
0
Голосов нет
 
Всего голосов : 0

 Статистика раздачи 
Размер: 2.17 ГБ   |  Зарегистрирован: Август 29, 2015, 8:56 am   |   .torrent скачан: 912 раз
Сидеров: 3157  [ 0 байт/сек ]   Личеров: 375  [ 0 байт/сек ]  

Вне/себя / Self/less (2015) WEB-DLRip-AVC

Сообщение sergey » Август 29, 2015, 8:56 am

Год выпуска: 2015
Страна: США
Жанр: фантастика, триллер, детектив
Продолжительность: 01:52:00
Перевод: Профессиональный (полное дублирование) [iTunes]
Cубтитры: нет

Режиссер: Тарсем Сингх / Tarsem Singh

В ролях: Райан Рейнольдс, Бен Кингсли, Натали Мартинес, Мэттью Гуд, Виктор Гарбер, Дерек Люк, Джейни-Линн Кинчен, Мелора Хардин, Мишель Докери, Сэмюэл Пейдж

Описание: В будущем становится возможным победить смерть с помощью имплантации своего сознания в молодое тело, созданное методом генной инженерии. Операция эта дорогостоящая и проводится подпольно, а поэтому доступна лишь ограниченному кругу лиц. Умирающий пожилой бизнесмен решается на это и получает возможность прожить еще одну жизнь. Однако когда ему приоткрывается тайна происхождения нового тела, за ним начинает охоту секретная организация, которая не остановится ни перед чем, чтобы защитить свои интересы.

Качество видео: WEB-DLRip-AVC
Формат видео: MKV

Видео: 1024x576 (16:9), 25.000, AVC, ~2381 kbps avg, 0.161 bit/pixel
Аудио: 48 kHz, AC3 Dolby Digital, 3/2 (L,C,R,l,r) + LFE ch, ~384 kbps






Вне себяVne_sebya_2015_WEB-DLRip_[scarabey.org].mkv
Format : Matroska
Format version : Version 2
File size : 2.17 GiB
Duration : 1h 52mn
Overall bit rate : 2 767 Kbps
Encoded date : UTC 2015-08-27 04:03:49
Writing application : mkvmerge v6.1.0 ('Old Devil') built on Mar 4 2013 09:10:42
Writing library : libebml v1.3.0 + libmatroska v1.4.0

Video
ID : 1
Format : AVC
Format/Info : Advanced Video Codec
Format profile : High@L4.1
Format settings, CABAC : Yes
Format settings, ReFrames : 8 frames
Codec ID : V_MPEG4/ISO/AVC
Duration : 1h 52mn
Bit rate : 2 381 Kbps
Width : 1 024 pixels
Height : 576 pixels
Display aspect ratio : 16:9
Frame rate mode : Constant
Frame rate : 25.000 fps
Color space : YUV
Chroma subsampling : 4:2:0
Bit depth : 8 bits
Scan type : Progressive
Bits/(Pixel*Frame) : 0.161
Stream size : 1.82 GiB (84%)
Writing library : x264 core 138 r2356 a1d3d17
Encoding settings : cabac=1 / ref=8 / deblock=1:-3:-2 / analyse=0x3:0x113 / me=umh / subme=10 / psy=1 / psy_rd=1.00:0.05 / mixed_ref=1 / me_range=32 / chroma_me=1 / trellis=2 / 8x8dct=1 / cqm=0 / deadzone=21,11 / fast_pskip=1 / chroma_qp_offset=-3 / threads=12 / lookahead_threads=2 / sliced_threads=0 / nr=0 / decimate=0 / interlaced=0 / bluray_compat=0 / constrained_intra=0 / bframes=8 / b_pyramid=2 / b_adapt=2 / b_bias=0 / direct=3 / weightb=1 / open_gop=0 / weightp=2 / keyint=250 / keyint_min=25 / scenecut=40 / intra_refresh=0 / rc_lookahead=40 / rc=2pass / mbtree=1 / bitrate=2381 / ratetol=1.0 / qcomp=0.60 / qpmin=0 / qpmax=69 / qpstep=4 / cplxblur=20.0 / qblur=0.5 / ip_ratio=1.40 / aq=1:1.00
Default : Yes
Forced : No

Audio
ID : 2
Format : AC-3
Format/Info : Audio Coding 3
Mode extension : CM (complete main)
Format settings, Endianness : Big
Codec ID : A_AC3
Duration : 1h 52mn
Bit rate mode : Constant
Bit rate : 384 Kbps
Channel(s) : 6 channels
Channel positions : Front: L C R, Side: L R, LFE
Sampling rate : 48.0 KHz
Bit depth : 16 bits
Compression mode : Lossy
Stream size : 308 MiB (14%)
Default : Yes
Forced : No
   
Торрент: Зарегистрирован [Август 29, 2015, 8:56 am]
Видео WEBRip Скачать торрент Магнет ссылка Смотреть онлайн
Скачать торрент
[ Размер 11.67 КБ / Просмотров 15 ]
Статус:
Проверен
---
.torrent скачан: 912 раз
Приватный: Нет (DHT включён)
Размер: 2.17 ГБ (2 328 708 814)
   
Аватара пользователя
sergey
 
Раздал: 42.54 ТБ
Скачал: 198.69 ГБ
Ратио: 265.234
Сообщения: 5350
Зарегистрирован: Август 6, 2012, 2:11 pm
Откуда: СССР

Флаг страны: СССР

  • Похожие торренты
    Ответы
    Просмотры
    Последнее сообщение

Вернуться в Видео WEBRip



Кто сейчас на конференции

Сейчас эту тему просматривают: нет зарегистрированных пользователей и гости: 1

Ресурс не содержит никакой другой информации, кроме описаний отдельных файлов или их групп, имеющихся у некоторых пользователей данного ресурса. Подтверждением наличия данных файлов у пользователя может иногда являться специальный набор значений, представляющих собой результаты применения односторонних хеш-функций к этим файлам или их группам. Данные наборы значений объединяются пользователями в единое целое и могут быть выложены ими вместе с описаниями имеющихся у них файлов. Администрация данного ресурса не имеет физической возможности убедиться, что описания файлов, выложенные нашими пользователями, равно как и созданные ими наборы хешей от файлов, соответствуют реальным файлам имеющимся у пользователей, а не созданы каким-либо иным способом.
cron
Яндекс.Метрика