Человеческая многоножка / The Human Centipede (First Sequence) (Том Сикс / Tom Six) [2009, Нидерланды, ужасы, триллер, драма, BDRip 720p] MVO (Позитив) + DVO (Парочка) + Sub (Rus, Eng) + Original (Eng)

Фильмы в формате DVD

Оценка торрента

5
0
Голосов нет
4
0
Голосов нет
3
0
Голосов нет
2
0
Голосов нет
1
0
Голосов нет
 
Всего голосов : 0

 Статистика раздачи 
Размер: 4.07 ГБ   |  Зарегистрирован: Сентябрь 5, 2015, 1:01 pm   |   .torrent скачан: 1 раз
Сидеров: 62  [ 0 байт/сек ]   Личеров: 2  [ 0 байт/сек ]  

Человеческая многоножка / The Human Centipede (First Sequence) (Том Сикс / Tom Six) [2009, Нидерланды, ужасы, триллер, драма, BDRip 720p] MVO (Позитив) + DVO (Парочка) + Sub (Rus, Eng) + Original (Eng)

Сообщение sergey » Сентябрь 5, 2015, 1:01 pm

Человеческая многоножка / The Human Centipede (First Sequence)
Страна: Нидерланды
Жанр: ужасы, триллер, драма
Год выпуска: 2009
Продолжительность: 01:28:03

Перевод 1: Профессиональный (многоголосый закадровый) фирма Позитив по заказу кинотеатра Ivi
Перевод 2: Любительский (двухголосый закадровый) Сладкая парочка
Cубтитры: русские (форсир. на немецкую речь, полные), английские (полные)
Оригинальная аудиодорожка: английский

Режиссер: Том Сикс / Tom Six

В ролях: Дитер Лазер, Эшли Уильямс, Эшлинн Йенни, Акихиро Китамура, Андреас Леупольд, Питер Бланкенштейн, Бернд Костро, Рене Де Уит, Сильвия Зидек, Моника Иконика

Описание: Две симпатичные американские девушки Линдси и Дженни путешествуют автомобилем по Европе. Однажды ночью на дороге где-то в лесах Германии они пробивают шины и в поисках помощи натыкаются на заброшенную виллу, хозяин которой накачивает их наркотиками и затягивает в самодельную больничную палату в подвале.
Утром девушки узнают, что они здесь не одни, а гостеприимный пожилой немец не кто иной, как доктор Хайтер, отставной хирург, всемирно известный эксперт по разделению сиамских близнецов. Но только на сей раз он собирается не разделять людей, а соединить их в «человеческую многоножку» с одной пищеварительной системой. И доктора совершенно не пугает тот факт, что в предыдущем его эксперименте «три собаки» погибли.


Сэмпл: Скачать

Тип релиза: BDRip 720p (WiKi)
Контейнер: MKV

Видео: MPEG-4 AVC / 1280x720 / 5590 kbps / 25 fps / 16:9 / High Profile 4.1
Аудио 1: Русский, AC3 / 2.0 / 48 kHz / 192 kbps / DN -4dB (MVO)
Аудио 2: Русский, AC3 / 2.0 / 48 kHz / 192 kbps / DN -4dB (DVO)
Аудио 3: Английский, AC3 / 2.0 / 48 kHz / 640 kbps / DN -4dB (Original)
Формат субтитров: подключаемые (SRT)
General
Unique ID : 206221135822148537537595120669870371115 (0x9B24BEFE15F9F218A12857FE8081B12B)
Complete name : D:\The.Human.Centipede.First.Sequence.2009.720p.BluRay.2xRus.Eng.x264-WiKi.mkv
Format : Matroska
Format version : Version 2
File size : 4.07 GiB
Duration : 1h 28mn
Overall bit rate : 6 610 Kbps
Movie name : The Human Centipede. First Sequence (2009)
Encoded date : UTC 2014-01-02 11:41:56
Writing application : mkvmerge v5.8.0 ('No Sleep / Pillow') built on Sep 2 2012 15:37:04
Writing library : libebml v1.2.3 + libmatroska v1.3.0

Video
ID : 1
Format : AVC
Format/Info : Advanced Video Codec
Format profile : High@L4.1
Format settings, CABAC : Yes
Format settings, ReFrames : 8 frames
Codec ID : V_MPEG4/ISO/AVC
Duration : 1h 28mn
Bit rate : 5 589 Kbps
Width : 1 280 pixels
Height : 720 pixels
Display aspect ratio : 16:9
Frame rate mode : Constant
Frame rate : 25.000 fps
Color space : YUV
Chroma subsampling : 4:2:0
Bit depth : 8 bits
Scan type : Progressive
Bits/(Pixel*Frame) : 0.243
Stream size : 3.36 GiB (83%)
Title : x264
Writing library : x264 core 98 r1649 c54c47d
Encoding settings : cabac=1 / ref=8 / deblock=1:-3:-3 / analyse=0x3:0x113 / me=umh / subme=9 / psy=1 / psy_rd=1.10:0.00 / mixed_ref=1 / me_range=32 / chroma_me=1 / trellis=2 / 8x8dct=1 / cqm=0 / deadzone=21,11 / fast_pskip=0 / chroma_qp_offset=-4 / threads=6 / sliced_threads=0 / nr=0 / decimate=0 / interlaced=0 / constrained_intra=0 / bframes=6 / b_pyramid=2 / b_adapt=2 / b_bias=0 / direct=3 / weightb=1 / weightp=2 / keyint=250 / keyint_min=25 / scenecut=40 / intra_refresh=0 / rc_lookahead=48 / rc=2pass / mbtree=1 / bitrate=5589 / ratetol=1.0 / qcomp=0.60 / qpmin=10 / qpmax=51 / qpstep=4 / cplxblur=20.0 / qblur=0.5 / ip_ratio=1.40 / aq=1:0.80
Language : English
Default : Yes
Forced : No

Audio #1
ID : 2
Format : AC-3
Format/Info : Audio Coding 3
Mode extension : CM (complete main)
Format settings, Endianness : Big
Codec ID : A_AC3
Duration : 1h 28mn
Bit rate mode : Constant
Bit rate : 192 Kbps
Channel(s) : 2 channels
Channel positions : Front: L R
Sampling rate : 48.0 KHz
Bit depth : 16 bits
Compression mode : Lossy
Stream size : 121 MiB (3%)
Title : MVO (Pozitiv)
Language : Russian
Default : Yes
Forced : No

Audio #2
ID : 3
Format : AC-3
Format/Info : Audio Coding 3
Mode extension : CM (complete main)
Format settings, Endianness : Big
Codec ID : A_AC3
Duration : 1h 28mn
Bit rate mode : Constant
Bit rate : 192 Kbps
Channel(s) : 2 channels
Channel positions : Front: L R
Sampling rate : 48.0 KHz
Bit depth : 16 bits
Compression mode : Lossy
Stream size : 121 MiB (3%)
Title : DVO (Tvix)
Language : Russian
Default : No
Forced : No

Audio #3
ID : 4
Format : AC-3
Format/Info : Audio Coding 3
Mode extension : CM (complete main)
Format settings, Endianness : Big
Codec ID : A_AC3
Duration : 1h 28mn
Bit rate mode : Constant
Bit rate : 640 Kbps
Channel(s) : 2 channels
Channel positions : Front: L R
Sampling rate : 48.0 KHz
Bit depth : 16 bits
Compression mode : Lossy
Stream size : 403 MiB (10%)
Title : Original
Language : English
Default : No
Forced : No

Text #1
ID : 5
Format : UTF-8
Codec ID : S_TEXT/UTF8
Codec ID/Info : UTF-8 Plain Text
Title : Forced
Language : Russian
Default : Yes
Forced : No

Text #2
ID : 6
Format : UTF-8
Codec ID : S_TEXT/UTF8
Codec ID/Info : UTF-8 Plain Text
Title : Full
Language : Russian
Default : No
Forced : No

Text #3
ID : 7
Format : UTF-8
Codec ID : S_TEXT/UTF8
Codec ID/Info : UTF-8 Plain Text
Title : Full
Language : English
Default : No
Forced : No

   
Торрент: Зарегистрирован [Сентябрь 5, 2015, 1:01 pm]
Видео DVD Скачать торрент Магнет ссылка Смотреть онлайн
Скачать торрент
[ Размер 10.81 КБ / Просмотров 2 ]
Статус:
Проверен
---
.torrent скачан: 1 раз
Приватный: Нет (DHT включён)
Размер: 4.07 ГБ (4 365 610 155)
   
Аватара пользователя
sergey
 
Раздал: 42.54 ТБ
Скачал: 198.69 ГБ
Ратио: 265.234
Сообщения: 5343
Зарегистрирован: Август 6, 2012, 2:11 pm
Откуда: СССР

Флаг страны: СССР

Вернуться в Видео DVD



Кто сейчас на конференции

Сейчас эту тему просматривают: нет зарегистрированных пользователей и гости: 1

cron
Ресурс не содержит никакой другой информации, кроме описаний отдельных файлов или их групп, имеющихся у некоторых пользователей данного ресурса. Подтверждением наличия данных файлов у пользователя может иногда являться специальный набор значений, представляющих собой результаты применения односторонних хеш-функций к этим файлам или их группам. Данные наборы значений объединяются пользователями в единое целое и могут быть выложены ими вместе с описаниями имеющихся у них файлов. Администрация данного ресурса не имеет физической возможности убедиться, что описания файлов, выложенные нашими пользователями, равно как и созданные ими наборы хешей от файлов, соответствуют реальным файлам имеющимся у пользователей, а не созданы каким-либо иным способом.
cron
Яндекс.Метрика