Овечка Долли была злая и рано умерла (2015) WEB-DL 1080p

Фильмы в формате WEBRip/Avi и т.д.

Оценка торрента

5
0
Голосов нет
4
0
Голосов нет
3
0
Голосов нет
2
0
Голосов нет
1
0
Голосов нет
 
Всего голосов : 0

 Статистика раздачи 
Размер: 3.94 ГБ   |  Зарегистрирован: Сентябрь 12, 2015, 9:31 am   |   .torrent скачан: 3065 раз
Сидеров: 4239  [ 0 байт/сек ]   Личеров: 313  [ 0 байт/сек ]  

Овечка Долли была злая и рано умерла (2015) WEB-DL 1080p

Сообщение sergey » Сентябрь 12, 2015, 9:31 am

Информация о фильме
Название: Овечка Долли была злая и рано умерла
Год выхода: 2015
Жанр: фантастика, комедия, приключения
Режиссер: Алексей Пиманов
В ролях: Данила Шевченко, Юлия Савичева, Виктор Сухоруков, Роман Полянский, Виктория Маслова, Борис Щербаков, Анна Шерлинг, Юлия Пожидаева, Антон Феоктистов, Ирина Ильинская
О фильме:
Главный герой — современный молодой человек Никита, студент МИФИ, в результате научного эксперимента попадает в прошлое, где ему предстоит встретить не только своих молодых родителей, но найти новых друзей и обрести настоящую любовь в лице студентки Маши. Эта встреча заставляет его по-другому посмотреть на свою жизнь. Однако Никита вдруг понимает, что начинает стремительно стареть и спастись он может только если вернется обратно — в свое время. Но сделать это оказалось не так просто….

Страна: Россия
Студия: Пиманов Фильм
Продолжительность: 01:56:37
Перевод: Не требуется
Файл
Качество: WEB-DL (1080p)
Видео: MPEG-4 AVC, 4547 Кбит/с, 1920x810
Аудио: AC3, 2 ch, 192 Кбит/с
Язык: Русский



General
Unique ID : 235456627977728156120679734938898377388 (0xB1234C0AFD1F87B18FB27E8B76D5AAAC)
Complete name : F:FILMSОвечка Долли была злая и рано умерла.2015.O.WEB-DL.1080p.mkv
Format : Matroska
Format version : Version 4 / Version 2
File size : 3.94 GiB
Duration : 1h 56mn
Overall bit rate : 4 835 Kbps
Encoded date : UTC 2015-09-11 06:06:12
Writing application : mkvmerge v6.5.0 ('Isn't she lovely') built on Oct 20 2013 12:50:05
Writing library : libebml v1.3.0 + libmatroska v1.4.1

Video
ID : 1
Format : AVC
Format/Info : Advanced Video Codec
Format profile : High@L4
Format settings, CABAC : Yes
Format settings, ReFrames : 5 frames
Codec ID : V_MPEG4/ISO/AVC
Duration : 1h 56mn
Bit rate : 4 547 Kbps
Width : 1 920 pixels
Height : 810 pixels
Display aspect ratio : 2.40:1
Frame rate mode : Constant
Frame rate : 25.000 fps
Color space : YUV
Chroma subsampling : 4:2:0
Bit depth : 8 bits
Scan type : Progressive
Bits/(Pixel*Frame) : 0.117
Stream size : 3.70 GiB (94%)
Language : English
Default : Yes
Forced : No
Color range : Limited
Color primaries : BT.709
Transfer characteristics : BT.709
Matrix coefficients : BT.709

Audio
ID : 2
Format : AC-3
Format/Info : Audio Coding 3
Mode extension : CM (complete main)
Format settings, Endianness : Big
Codec ID : A_AC3
Duration : 1h 56mn
Bit rate mode : Constant
Bit rate : 192 Kbps
Channel(s) : 2 channels
Channel positions : Front: L R
Sampling rate : 48.0 KHz
Compression mode : Lossy
Stream size : 160 MiB (4%)
Language : Russian
Default : Yes
Forced : No

Menu
00:00:00.000 : en:Глава 1
00:05:36.000 : en:Глава 2
00:10:46.000 : en:Глава 3
00:16:09.000 : en:Глава 4
00:21:20.000 : en:Глава 5
00:27:03.000 : en:Глава 6
00:32:21.000 : en:Глава 7
00:37:58.000 : en:Глава 8
00:43:23.000 : en:Глава 9
00:48:16.000 : en:Глава 10
00:54:01.000 : en:Глава 11
00:59:39.000 : en:Глава 12
01:05:34.000 : en:Глава 13
01:11:49.000 : en:Глава 14
01:17:17.000 : en:Глава 15
01:21:49.000 : en:Глава 16
01:26:52.000 : en:Глава 17
01:32:07.000 : en:Глава 18
01:38:04.000 : en:Глава 19
01:43:57.000 : en:Глава 20
01:49:41.000 : en:Глава 21
   
Торрент: Зарегистрирован [Сентябрь 12, 2015, 9:31 am]
Видео WEBRip Скачать торрент Магнет ссылка Смотреть онлайн
Скачать торрент
[ Размер 20.55 КБ / Просмотров 9 ]
Статус:
Проверен
---
.torrent скачан: 3065 раз
Приватный: Нет (DHT включён)
Размер: 3.94 ГБ (4 229 550 567)
   
Аватара пользователя
sergey
 
Раздал: 42.54 ТБ
Скачал: 198.69 ГБ
Ратио: 265.234
Сообщения: 5347
Зарегистрирован: Август 6, 2012, 2:11 pm
Откуда: СССР

Флаг страны: СССР

  • Похожие торренты
    Ответы
    Просмотры
    Последнее сообщение

Вернуться в Видео WEBRip



Кто сейчас на конференции

Сейчас эту тему просматривают: нет зарегистрированных пользователей и гости: 1

Ресурс не содержит никакой другой информации, кроме описаний отдельных файлов или их групп, имеющихся у некоторых пользователей данного ресурса. Подтверждением наличия данных файлов у пользователя может иногда являться специальный набор значений, представляющих собой результаты применения односторонних хеш-функций к этим файлам или их группам. Данные наборы значений объединяются пользователями в единое целое и могут быть выложены ими вместе с описаниями имеющихся у них файлов. Администрация данного ресурса не имеет физической возможности убедиться, что описания файлов, выложенные нашими пользователями, равно как и созданные ими наборы хешей от файлов, соответствуют реальным файлам имеющимся у пользователей, а не созданы каким-либо иным способом.
cron
Яндекс.Метрика