Неподкупный / Серии: 16 из 16 ( [2015, криминал, SATRip]

Отечественные и зарубежные сериалы

Оценка торрента

5
0
Голосов нет
4
0
Голосов нет
3
0
Голосов нет
2
0
Голосов нет
1
0
Голосов нет
 
Всего голосов : 0

 Статистика раздачи 
Размер: 9.47 ГБ   |  Зарегистрирован: Сентябрь 16, 2015, 8:25 am   |   .torrent скачан: 6 раз
Сидеров: 21  [ 0 байт/сек ]   Личеров: 5  [ 0 байт/сек ]  

Неподкупный / Серии: 16 из 16 ( [2015, криминал, SATRip]

Сообщение sergey » Сентябрь 16, 2015, 8:25 am

Неподкупный
Страна: [Для просмотра изображения необходимо включить JavaScript] Россия
Производство: [Для просмотра изображения необходимо включить JavaScript] "СВЭЛЛ фильм"
Жанр: криминал
Год выпуска: 2015 г.Премьера (РФ): 7 сентября 2015Режиссер: Александр Даруга, Марат КимВ ролях: Владимир Епифанцев, Ирина Розанова, Владимир Юматов, Марина Коняшкина, Андрей Носков, Жанна Эппле, Михаил Тарабукин, Мария Козлова, Иван Мацкевич, Алексей ДаругаОписание:
Когда в преступлениях замешана верхушка правящей элиты, а заказчиками оказываются представители властных структур, слишком многие заинтересованы в том, чтобы следствие поскорее было закрыто, а истинные виновные никогда не были найдены. Тем более что по официальным данным, коррупции в СССР не было. Многочисленные факты взяточничества, злоупотреблений властью, "сращивания" чиновничьего аппарата с криминалом и фальсификации судебных дел не предавались огласке. Однако в 80-е годы были выявлены и обнародованы данные о грандиозных по масштабу преступлениях, которые прогремели на всю страну.Серии: 16 из 16 серий
Продолжительность: ~ 00:43:00 мин серия#77
Качество видео: SATRip
Контейнер: AVI
Видео кодек: XviD
Аудио кодек: MP3
Видео: MPEG-4 Visual at 1800 Кбит/сек: 720 x 384 (1.875) at 25.000 fps: 0.26 Бит/Пиксели
Аудио Rus: MPEG Audio at 128 Кбит/сек: 2 канала, 48,0 КГц
Cубтитры: отсутствуют
Код: Выделить всё
Общее
Полное имя                               : E:\_Сериалы\_Сериалы\Nepodkupnyj.2015\01.serija.avi
Формат                                   : AVI
Формат/Информация                        : Audio Video Interleave
Размер файла                             : 609 Мбайт
Продолжительность                        : 43 м.
Общий поток                              : 1938 Кбит/сек
Программа кодирования                    : VirtualDubMod 1.5.10.3 | www.virtualdub-fr.org || (build 2550/release)
Библиотека кодирования                   : VirtualDubMod build 2550/release
Видео
Идентификатор                            : 0
Формат                                   : MPEG-4 Visual
Профиль формата                          : Advanced Simple@L5
Параметр BVOP формата                    : 2
Параметр QPel формата                    : Нет
Параметр GMC формата                     : Без точки перехода
Параметр матрицы формата                 : Default (MPEG)
Идентификатор кодека                     : XVID
Идентификатор кодека/Подсказка           : XviD
Продолжительность                        : 43 м.
Битрейт                                  : 1800 Кбит/сек
Ширина                                   : 720 пикселей
Высота                                   : 384 пикселя
Соотношение сторон                       : 1,85:1
Частота кадров                           : 25,000 кадров/сек
Цветовое пространство                    : YUV
Субдискретизация насыщенности            : 4:2:0
Битовая глубина                          : 8 бит
Тип развёртки                            : Прогрессивная
Метод сжатия                             : С потерями
Бит/(Пиксели*Кадры)                      : 0.260
Размер потока                            : 566 Мбайт (93%)
Библиотека кодирования                   : XviD 1.2.1 (UTC 2008-12-04)
Аудио
Идентификатор                            : 1
Формат                                   : MPEG Audio
Версия формата                           : Version 1
Профиль формата                          : Layer 3
Режим                                    : Joint stereo
Расширение режима                        : MS Stereo
Идентификатор кодека                     : 55
Идентификатор кодека/Подсказка           : MP3
Продолжительность                        : 43 м.
Вид битрейта                             : Постоянный
Битрейт                                  : 128 Кбит/сек
Каналы                                   : 2 канала
Частота                                  : 48,0 КГц
Метод сжатия                             : С потерями
Размер потока                            : 40,2 Мбайт (7%)
Выравнивание                             : Соединение по промежуткам
Продолжительность промежутка             : 40  мс. (1,00 видеокадр)
Время предзагрузки промежутка            : 504  мс.
Библиотека кодирования                   : LAME3.99r
Настройки программы                      : -m j -V 4 -q 9 -lowpass 17 -b 128
Скриншоты:

[Для просмотра изображения необходимо включить JavaScript][Для просмотра изображения необходимо включить JavaScript][Для просмотра изображения необходимо включить JavaScript][Для просмотра изображения необходимо включить JavaScript]
Раздача ведётся путём добавления новых серий; при каждом добавлении создаётся новый торрент.
Чтобы начать докачку новой серии, пользователям необходимо сделать следующее:
1. остановить скачивание,
2. удалить старый торрент у себя из клиента (старые серии удалять не надо),
3. скачать новый торрент и запустить его у себя в клиенте вместо старого, при этом указать клиенту путь в старую папку, куда и должно происходить скачивание новых серий.
Ваш клиент при этом должен произвести хеширование (проверку) старой папки (если не производит сам - помогите ему сделать это), и будет докачивать только те серии которых у вас ещё нет. Старые серии при этом не удаляются, а продолжают раздаваться!
Eсли вы уже удалили старые серии, то предотвратить повторную закачку старых серий можно, отжав галочку в соответствующих местах при запуске нового торрента. По возможности, желательно не удалять старые серии как можно дольше, чтобы релизёр не столько продолжал раздавать старые серии, а смог сконцентрироваться на новых.
Совет для тех, кто не хочет ждать перехеширования:
Создайте ещё одну папку рядом с папкой сериала (рядом, а не в ней!!!). Каждую новую серию после удачной загрузки копируйте в новую папку так чтобы ваша основная папка всегда была пуста. Когда ваш новый торрент предложит вам закачать все файлы, выберете только последнюю. Для сидирования же укажите адрес новой папки.
Как закачать отдельный файл из торрента или докачать ранее пропущенные файлы торрента!
1. Открыть торрент
2. Снять галки с тех файлов торрента, которые мы не хотим закачивать. Оставляем только на нужных нам файлах (файле).
3. Нажать О.К.
В клиенте utorrent
Инструкция
1) Открыть торрент
[Для просмотра изображения необходимо включить JavaScript]
2) Снять галки с тех файлов торрента, которые мы не хотим закачивать:
* либо вручную, снимая с каждого файла галку( скрин №1)
* либо, нажав кнопку "Снять метки (Select None)", сняв сразу со всех файлов(скрин №2)
№1
[Для просмотра изображения необходимо включить JavaScript]
№2
[Для просмотра изображения необходимо включить JavaScript]
Оставляем только на нужных нам файлах (файле).
[Для просмотра изображения необходимо включить JavaScript]
3)Нажать О.К
[Для просмотра изображения необходимо включить JavaScript]
   
Торрент: Зарегистрирован [Сентябрь 16, 2015, 8:25 am]
Сериалы Скачать торрент Магнет ссылка Смотреть онлайн
Скачать торрент
[ Размер 48.41 КБ / Просмотров 9 ]
Статус:
Проверен
---
.torrent скачан: 6 раз
Приватный: Нет (DHT включён)
Размер: 9.47 ГБ (10 171 393 420)
   
Аватара пользователя
sergey
 
Раздал: 42.84 ТБ
Скачал: 202.96 ГБ
Ратио: 262.149
Сообщения: 5676
Зарегистрирован: Август 6, 2012, 2:11 pm
Откуда: СССР

Флаг страны: СССР

  • Похожие торренты
    Ответы
    Просмотры
    Последнее сообщение

Вернуться в Сериалы



Кто сейчас на конференции

Сейчас эту тему просматривают: нет зарегистрированных пользователей и гости: 1

cron
Яндекс.Метрика проверить доступность сайта