Ментовские войны 9 / Сезон: 9 / Серии: 1-16 из 16 [2015 г., SATRip]

Отечественные и зарубежные сериалы

Оценка торрента

5
0
Голосов нет
4
0
Голосов нет
3
0
Голосов нет
2
0
Голосов нет
1
0
Голосов нет
 
Всего голосов : 0

 Статистика раздачи 
Размер: 9.96 ГБ   |  Зарегистрирован: Октябрь 16, 2015, 8:08 am   |   .torrent скачан: 0 раз
Сидеров: 11  [ 0 байт/сек ]   Личеров: 3  [ 0 байт/сек ]  

Ментовские войны 9 / Сезон: 9 / Серии: 1-16 из 16 [2015 г., SATRip]

Сообщение sergey » Октябрь 16, 2015, 8:08 am

Ментовские войны 9
Серии: 1-16 из 16
Производство: Россия, Студия Панорама
Жанр: Боевик, детектив, криминал
Год выпуска: 2015 г.
Продолжительность: 16 х ~ 00:44:00
Российская премьера: 5 октября 2015
Режиссер: Денис СкворцовВ ролях: Александр Устюгов, Дмитрий Быковский-Ромашов, Всеволод Цурило, Мария Иванова (IV), Ольга Павловец, Андрей Родимов, Роберт Студеновский, Дмитрий Мухамадеев, Сергей Евсеев, Андрей Кузнецов, Дмитрий Лебедев (III), Антон Гриценко, Денис Баканов, Михаил Новицкий, Максим Матвеев (II), Сергей Хомченков, Сергей Выборнов, Владимир Маслаков, Ксения Алексеева, Андрей Полищук, Сергей Гарусов, Виктор Янишевский, Стэнли Красовицки, Сергей Стукалов, Мария Фефилова, Антон Успенский, Антон Быстров, Константин Китанин, Рустам Насыров, Андрей Шаповал, Андрей Аладьин, Гавриил Федотов, Герасим Архипов, Елизавета Ковалева, Александр Лисицын, Сергей Лысов, Андрей Карако, Дмитрий Олейник, Никита БарсуковОписание: Подполковник Роман Шилов возвращается в строй! Теперь он — начальник регионального спецотдела МВД по раскрытию особо тяжких преступлений. Его личная война с коррупцией в рядах спецслужб переходит на новый уровень. Многим его возвращение не дает покоя. Чтобы понять, кому именно, и раскрыть истинные причины происходящего, он вступает в противоборство с мощной группировкой, метко названной его коллегой «синдикатом киллеров». На новом посту у Романа карт-бланш: теперь он сам формирует штат своего подразделения и получает большую свободу оперативных действий под руководством непосредственного начальника – генерала Рощина. Воспользовавшись расположением генерала, Шилов возвращает на службу Джексона, а также добивается перевода в свое подчинение Павла Арнаутова и Светланы Морозовой.
Качество видео: SATRip
Контейнер: AVI
Видео кодек: XviD
Аудио кодек: AC3
Видео: 720x400 (1.80:1), 25 fps, XviD MPEG-4 ~1813 kbps avg, 0.25 bit/pixel
Аудио: 48 kHz, AC3 Dolby Digital, 2/0 (L,R) ch, ~192 kbps
Cубтитры: отсутствуют
Общее
Полное имя : F:\Кино\Mentovskie voiny 9 SATRip.avi
Формат : AVI
Формат/Информация : Audio Video Interleave
Размер файла : 643 Мбайт
Продолжительность : 44 м.
Общий поток : 2013 Кбит/сек
Программа кодирования : TMPGEnc Video Mastering Works 5 Version. 5.0.6.38
Библиотека кодирования : TMPGEnc Video Mastering Works 5 Version. 5.0.6.38
Видео
Идентификатор : 0
Формат : MPEG-4 Visual
Профиль формата : Advanced Simple@L5
Параметр BVOP формата : 2
Параметр QPel формата : Нет
Параметр GMC формата : Без точки перехода
Параметр матрицы формата : Default (MPEG)
Идентификатор кодека : XVID
Идентификатор кодека/Подсказка : XviD
Продолжительность : 44 м.
Битрейт : 1813 Кбит/сек
Ширина : 720 пикселей
Высота : 400 пикселей
Соотношение сторон : 16:9
Частота кадров : 25,000 кадров/сек
Цветовое пространство : YUV
Субдискретизация насыщенности : 4:2:0
Битовая глубина : 8 бит
Тип развёртки : Прогрессивная
Метод сжатия : С потерями
Бит/(Пиксели*Кадры) : 0.252
Размер потока : 580 Мбайт (90%)
Библиотека кодирования : XviD 73
Аудио
Идентификатор : 1
Формат : AC-3
Формат/Информация : Audio Coding 3
Расширение режима : CM (complete main)
Параметр Endianness формата : Big
Идентификатор кодека : 2000
Продолжительность : 44 м.
Вид битрейта : Постоянный
Битрейт : 192 Кбит/сек
Каналы : 2 канала
Расположение каналов : Front: L R
Частота : 48,0 КГц
Битовая глубина : 16 бит
Метод сжатия : С потерями
Размер потока : 61,4 Мбайт (10%)
Выравнивание : Соединение по промежуткам
Продолжительность промежутка : 240 мс. (6,00 видеокадров)
Время предзагрузки промежутка : 224 мс.
Скриншоты

   
Торрент: Зарегистрирован [Октябрь 16, 2015, 8:08 am]
Сериалы Скачать торрент Магнет ссылка Смотреть онлайн
Скачать торрент
[ Размер 51.14 КБ / Просмотров 10 ]
Статус:
Проверен
---
.torrent скачан: 0 раз
Приватный: Нет (DHT включён)
Размер: 9.96 ГБ (10 692 319 198)
   
Аватара пользователя
sergey
 
Раздал: 42.54 ТБ
Скачал: 198.69 ГБ
Ратио: 265.234
Сообщения: 5352
Зарегистрирован: Август 6, 2012, 2:11 pm
Откуда: СССР

Флаг страны: СССР

  • Похожие торренты
    Ответы
    Просмотры
    Последнее сообщение

Вернуться в Сериалы



Кто сейчас на конференции

Сейчас эту тему просматривают: нет зарегистрированных пользователей и гости: 1

Ресурс не содержит никакой другой информации, кроме описаний отдельных файлов или их групп, имеющихся у некоторых пользователей данного ресурса. Подтверждением наличия данных файлов у пользователя может иногда являться специальный набор значений, представляющих собой результаты применения односторонних хеш-функций к этим файлам или их группам. Данные наборы значений объединяются пользователями в единое целое и могут быть выложены ими вместе с описаниями имеющихся у них файлов. Администрация данного ресурса не имеет физической возможности убедиться, что описания файлов, выложенные нашими пользователями, равно как и созданные ими наборы хешей от файлов, соответствуют реальным файлам имеющимся у пользователей, а не созданы каким-либо иным способом.
cron
Яндекс.Метрика