Шанс [01-02 из 02] (2015) HDTVRip

Отечественные и зарубежные сериалы

Оценка торрента

1
0
Голосов нет
2
0
Голосов нет
3
0
Голосов нет
4
0
Голосов нет
5
0
Голосов нет
 
Всего голосов : 0

 Статистика раздачи 
Размер: 2.73 ГБ   |  Зарегистрирован: Октябрь 18, 2015, 2:47 pm   |   .torrent скачан: 2698 раз
Сидеров: 2719  [ 0 байт/сек ]   Личеров: 858  [ 0 байт/сек ]  

Шанс [01-02 из 02] (2015) HDTVRip

Сообщение sergey » Октябрь 18, 2015, 2:47 pm

Информация о фильме
Название: Шанс
Год выхода: 2015
Жанр: Мелодрама
Режиссер: Валерий Девятилов
В ролях: Полина Стрельникова (Сыркина), Владимир Колганов, Елена Сафонова, Екатерина Соломатина, Игорь Фурманюк, Екатерина Симаходская, Дмитрий Гудочкин, Валерий Девятилов, Людмила Гамуряк

О фильме: Жизнь не балует Женю Соколову. Как многие девчонки из деревни, она приехала покорять Москву, а вскоре оказалась беременной и брошенной на произвол судьбы. Женя уже готова вернуться домой, но судьба уготовила ей страшное испытание. Героиня оказывается втянутой в криминальную историю. Бандиты начинают охоту на Женю, и девушка вынуждена бежать куда глаза глядят, спасая себя и своего будущего ребенка.
Выпущено: Россия, к/к Русское
Продолжительность: 2 x ~ 01:30:00
Перевод: Не требуется

Сэмпл
Файл
Качество: HDTVRip
Видео: XviD, ~ 1920 Кбит/с, 720х400
Аудио: AC3, 2 ch, 192 Кбит/с

General
Complete name : Y:раздачиШанс.2015.HDTVRip.RG.Russkie.serialy.&.Files-x1.Шанс.2015.HDTVRip.RG.Russkie.serialy.&.Files-x.avi
Format : AVI
Format/Info : Audio Video Interleave
File size : 1.37 GiB
Duration : 1h 30mn
Overall bit rate : 2 155 Kbps
Writing application : VirtualDubMod 1.5.10.3 | http://www.virtualdub-fr.org || (build 2550/release)
Writing library : VirtualDubMod build 2550/release

Video
ID : 0
Format : MPEG-4 Visual
Format profile : Advanced Simple@L5
Format settings, BVOP : 1
Format settings, QPel : No
Format settings, GMC : No warppoints
Format settings, Matrix : Custom
Codec ID : XVID
Codec ID/Hint : XviD
Duration : 1h 30mn
Bit rate : 1 954 Kbps
Width : 720 pixels
Height : 400 pixels
Display aspect ratio : 16:9
Frame rate : 25.000 fps
Color space : YUV
Chroma subsampling : 4:2:0
Bit depth : 8 bits
Scan type : Progressive
Compression mode : Lossy
Bits/(Pixel*Frame) : 0.271
Stream size : 1.24 GiB (91%)
Writing library : XviD 73

Audio
ID : 1
Format : AC-3
Format/Info : Audio Coding 3
Mode extension : CM (complete main)
Format settings, Endianness : Big
Codec ID : 2000
Duration : 1h 30mn
Bit rate mode : Constant
Bit rate : 192 Kbps
Channel(s) : 2 channels
Channel positions : Front: L R
Sampling rate : 48.0 KHz
Compression mode : Lossy
Stream size : 125 MiB (9%)
Alignment : Split accross interleaves
Interleave, duration : 40 ms (1.00 video frame)
Interleave, preload duratio : 500 ms



   
Торрент: Зарегистрирован [Октябрь 18, 2015, 2:47 pm]
Сериалы Скачать торрент Магнет ссылка Смотреть онлайн
Скачать торрент
[ Размер 14.6 КБ / Просмотров 6 ]
Статус:
Проверен
---
.torrent скачан: 2698 раз
Приватный: Нет (DHT включён)
Размер: 2.73 ГБ (2 932 862 976)
   
Аватара пользователя
sergey
 
Раздал: 42.54 ТБ
Скачал: 198.69 ГБ
Ратио: 265.234
Сообщения: 5348
Зарегистрирован: Август 6, 2012, 2:11 pm
Откуда: СССР

Флаг страны: СССР

  • Похожие торренты
    Ответы
    Просмотры
    Последнее сообщение

Вернуться в Сериалы



Кто сейчас на конференции

Сейчас эту тему просматривают: нет зарегистрированных пользователей и гости: 1

Ресурс не содержит никакой другой информации, кроме описаний отдельных файлов или их групп, имеющихся у некоторых пользователей данного ресурса. Подтверждением наличия данных файлов у пользователя может иногда являться специальный набор значений, представляющих собой результаты применения односторонних хеш-функций к этим файлам или их группам. Данные наборы значений объединяются пользователями в единое целое и могут быть выложены ими вместе с описаниями имеющихся у них файлов. Администрация данного ресурса не имеет физической возможности убедиться, что описания файлов, выложенные нашими пользователями, равно как и созданные ими наборы хешей от файлов, соответствуют реальным файлам имеющимся у пользователей, а не созданы каким-либо иным способом.
cron
Яндекс.Метрика