Демоны Джун / June [2015] [ужасы, фантастика]

Фильмы в формате WEBRip/Avi и т.д.

Оценка торрента

1
0
Голосов нет
2
0
Голосов нет
3
0
Голосов нет
4
0
Голосов нет
5
0
Голосов нет
 
Всего голосов : 0

 Статистика раздачи 
Размер: 2.82 ГБ   |  Зарегистрирован: Октябрь 18, 2015, 4:50 pm   |   .torrent скачан: 1048 раз
Сидеров: 898  [ 0 байт/сек ]   Личеров: 265  [ 0 байт/сек ]  

Демоны Джун / June [2015] [ужасы, фантастика]

Сообщение sergey » Октябрь 18, 2015, 4:50 pm

Информация о фильме
Название: Демоны Джун
Оригинальное название: June
Год выхода: 2015
Жанр: ужасы, фантастика
Режиссер: Л. Густаво Купер
В ролях: Кеннеди Брайс, Виктория Прэтт, Эдди Джемисон, Лэнс Э. Николс, Каспер Ван Дин, Эдди Миллер, Эйден Флауэрс, Рэйчел Уитман Гровс, Джульетт Бивен, Келли Линд
О фильме:
История девятилетней сироты, которая стала сосудом для сверхъестественного существа по имени Аер. Аер выходит наружу, когда Джун теряет над собой контроль, если другие дети дразнят, пугают или унижают её. Мечтавшая о семье Джун быстро привыкает к своим новым приемным родителям, Лили и Дэйву, но теперь ей предстоит открыть свое настоящее имя, чтобы победить своего внутреннего демона, спасти себя и свою новую семью, найти любовь и признание в этом хаотичном мире.


Производство: США / De Angeles Films, Raven Banner Entertainment
Продолжительность: 01:23:35
Озвучивание: Любительское (двухголосое) [den904 & DeadSno], перевод [dsa69]
Файл
Формат: MKV
Качество: WEB-DL 720p
Видео: MPEG-4 AVC, 3963 kb/s, 1280x536
Аудио: Russian / English: AC3, 384 kb/s (6 ch)
Код: Выделить всё
Format                         : Matroska
Format version                 : Version 2
File size                      : 2.82 GiB
Duration                       : 1h 23mn
Overall bit rate               : 4 827 Kbps
Encoded date                   : UTC 2015-10-17 18:28:54
Writing application            : mkvmerge v7.8.0 ('River Man') 32bit built on Apr  3 2015 12:11:22
Writing library                : libebml v1.3.1 + libmatroska v1.4.2

Video
ID                             : 1
Format                         : AVC
Format/Info                    : Advanced Video Codec
Format profile                 : Main@L3.1
Format settings, CABAC         : No
Format settings, ReFrames      : 2 frames
Codec ID                       : V_MPEG4/ISO/AVC
Duration                       : 1h 23mn
Bit rate                       : 3 963 Kbps
Width                          : 1 280 pixels
Height                         : 536 pixels
Display aspect ratio           : 2.40:1
Frame rate mode                : Constant
Frame rate                     : 23.976 fps
Color space                    : YUV
Chroma subsampling             : 4:2:0
Bit depth                      : 8 bits
Scan type                      : Progressive
Bits/(Pixel*Frame)             : 0.241
Stream size                    : 2.31 GiB (82%)
Language                       : English
Default                        : Yes
Forced                         : No
Color range                    : Limited
Color primaries                : BT.709
Transfer characteristics       : BT.709
Matrix coefficients            : BT.709

Audio #1
ID                             : 2
Format                         : AC-3
Format/Info                    : Audio Coding 3
Mode extension                 : CM (complete main)
Format settings, Endianness    : Big
Codec ID                       : A_AC3
Duration                       : 1h 23mn
Bit rate mode                  : Constant
Bit rate                       : 384 Kbps
Channel(s)                     : 6 channels
Channel positions              : Front: L C R, Side: L R, LFE
Sampling rate                  : 48.0 KHz
Bit depth                      : 16 bits
Compression mode               : Lossy
Stream size                    : 230 MiB (8%)
Language                       : Russian
Default                        : Yes
Forced                         : No

Audio #2
ID                             : 3
Format                         : AC-3
Format/Info                    : Audio Coding 3
Mode extension                 : CM (complete main)
Format settings, Endianness    : Big
Codec ID                       : A_AC3
Duration                       : 1h 23mn
Bit rate mode                  : Constant
Bit rate                       : 384 Kbps
Channel(s)                     : 6 channels
Channel positions              : Front: L C R, Side: L R, LFE
Sampling rate                  : 48.0 KHz
Bit depth                      : 16 bits
Compression mode               : Lossy
Stream size                    : 230 MiB (8%)
Language                       : English
Default                        : No
Forced                         : No

Menu
00:00:00.000                   : en:Chapter 1
00:07:19.000                   : en:Chapter 2
00:14:53.000                   : en:Chapter 3
00:20:56.000                   : en:Chapter 4
00:29:47.000                   : en:Chapter 5
00:37:24.000                   : en:Chapter 6
00:43:32.000                   : en:Chapter 7
00:53:12.000                   : en:Chapter 8
01:00:39.000                   : en:Chapter 9
01:08:02.000                   : en:Chapter 10
01:21:19.000                   : en:Chapter 11








Название: Демоны Джун / June
Дата выхода: 2015
Жанр: ужасы, фантастика
   
Торрент: Зарегистрирован [Октябрь 18, 2015, 4:50 pm]
Видео WEBRip Скачать торрент Магнет ссылка Смотреть онлайн
Скачать торрент
[ Размер 14.76 КБ / Просмотров 5 ]
Статус:
Проверен
---
.torrent скачан: 1048 раз
Приватный: Нет (DHT включён)
Размер: 2.82 ГБ (3 025 513 952)
   
Аватара пользователя
sergey
 
Раздал: 42.54 ТБ
Скачал: 198.69 ГБ
Ратио: 265.234
Сообщения: 5338
Зарегистрирован: Август 6, 2012, 2:11 pm
Откуда: СССР

Флаг страны: СССР

  • Похожие торренты
    Ответы
    Просмотры
    Последнее сообщение

Вернуться в Видео WEBRip



Кто сейчас на конференции

Сейчас эту тему просматривают: нет зарегистрированных пользователей и гости: 1

Ресурс не содержит никакой другой информации, кроме описаний отдельных файлов или их групп, имеющихся у некоторых пользователей данного ресурса. Подтверждением наличия данных файлов у пользователя может иногда являться специальный набор значений, представляющих собой результаты применения односторонних хеш-функций к этим файлам или их группам. Данные наборы значений объединяются пользователями в единое целое и могут быть выложены ими вместе с описаниями имеющихся у них файлов. Администрация данного ресурса не имеет физической возможности убедиться, что описания файлов, выложенные нашими пользователями, равно как и созданные ими наборы хешей от файлов, соответствуют реальным файлам имеющимся у пользователей, а не созданы каким-либо иным способом.
cron
Яндекс.Метрика