Забытое / 4Got10 [2015 ] [боевик, триллер, вестерн]

Фильмы в формате DVD

Оценка торрента

1
0
Голосов нет
2
0
Голосов нет
3
0
Голосов нет
4
0
Голосов нет
5
0
Голосов нет
 
Всего голосов : 0

 Статистика раздачи 
Размер: 1.37 ГБ   |  Зарегистрирован: Октябрь 19, 2015, 8:17 am   |   .torrent скачан: 0 раз
Сидеров: 21  [ 0 байт/сек ]   Личеров: 1  [ 0 байт/сек ]  

Забытое / 4Got10 [2015 ] [боевик, триллер, вестерн]

Сообщение sergey » Октябрь 19, 2015, 8:17 am

Забытое / 4Got10
«The good, the bad, and the dead»
Производство: США, Status Media & Entertainment, Puppy Entertainmen
Год выпуска: 2015 г.
Жанр: боевик, триллер, вестерн
Продолжительность: 01:24:07Мировая премьера: 6 октября 2015Перевод: Любительский (одноголосый, закадровый) [Павел Морозов aka PashaUp]Режиссер: Тимоти Вудворд мл. / Timothy Woodward Jr.В ролях: Джонни Месснер, Дольф Лундгрен, Дэнни Трехо, Вивика А. Фокс, Майкл Паре, Наташа Мальте, Джон Лофлин, Энджелл КонвеллОписание: Брайан Барнс просыпается в пустыне. Он ранен и без памяти, и не понимает, почему его окружают восемь трупов, фургон с четырьмя миллионами наличными и еще один фургон с кокаином. Брайана преследует не только пресловутый наркобарон Дэнни Перес, который отчаянно хочет вернуть обратно свои деньги, но и агент Рукер, а также коррумпированный шериф Олсон, который не остановится ни перед чем, чтобы заполучить деньги. Чем больше Брайан вспоминает о прошлом, тем меньше он хочет знать о том, кто он на самом деле.
Качество видео: HDRip
Контейнер: AVI
Видео кодек: XviD
Аудио кодек: AC3
Видео: 720x304 (2.37:1), 23.976 fps, XviD build 73 ~1875 kbps avg, 0.36 bit/pixel
Аудио: 48 kHz, AC3 Dolby Digital, 3/2 (L,C,R,l,r) + LFE ch, ~448 kbps - PashaUp
Cубтитры: Отсутствуют
Общее
Полное имя : D:\Torrent2\4Got10.2015.PashaUp.HDRip.avi
Формат : AVI
Формат/Информация : Audio Video Interleave
Размер файла : 1,37 Гбайт
Продолжительность : 1 ч. 24 м.
Общий поток : 2333 Кбит/сек
Программа кодирования : VirtualDubMod 1.5.10.2 (build 2540/release)
Видео
Идентификатор : 0
Формат : MPEG-4 Visual
Профиль формата : Advanced Simple@L5
Параметр BVOP формата : 1
Параметр QPel формата : Нет
Параметр GMC формата : Без точки перехода
Параметр матрицы формата : Выборочная
Идентификатор кодека : XVID
Идентификатор кодека/Подсказка : XviD
Продолжительность : 1 ч. 24 м.
Битрейт : 1876 Кбит/сек
Ширина : 720 пикселей
Высота : 304 пикселя
Соотношение сторон : 2,35:1
Частота кадров : 23,976 кадра/сек
Цветовое пространство : YUV
Субдискретизация насыщенности : 4:2:0
Битовая глубина : 8 бит
Тип развёртки : Прогрессивная
Метод сжатия : С потерями
Бит/(Пиксели*Кадры) : 0.357
Размер потока : 1,10 Гбайт (80%)
Библиотека кодирования : XviD 73
Аудио
Идентификатор : 1
Формат : AC-3
Формат/Информация : Audio Coding 3
Расширение режима : CM (complete main)
Параметр Endianness формата : Big
Идентификатор кодека : 2000
Продолжительность : 1 ч. 24 м.
Вид битрейта : Постоянный
Битрейт : 448 Кбит/сек
Каналы : 6 каналов
Расположение каналов : Front: L C R, Side: L R, LFE
Частота : 48,0 КГц
Метод сжатия : С потерями
Размер потока : 270 Мбайт (19%)
Выравнивание : Разделение по промежуткам
Продолжительность промежутка : 42 мс. (1,00 видеокадр)
Время предзагрузки промежутка : 500 мс.
Заголовок : PashaUp
Трейлер



Название: Забытое / 4Got10
Дата выхода: 2015
Жанр: боевик, триллер, вестерн
   
Торрент: Зарегистрирован [Октябрь 19, 2015, 8:17 am]
Видео DVD Скачать торрент Магнет ссылка Смотреть онлайн
Скачать торрент
[ Размер 14.06 КБ / Просмотров 0 ]
Статус:
Проверен
---
.torrent скачан: 0 раз
Приватный: Нет (DHT включён)
Размер: 1.37 ГБ (1 472 143 360)
   
Аватара пользователя
sergey
 
Раздал: 42.54 ТБ
Скачал: 198.69 ГБ
Ратио: 265.234
Сообщения: 5348
Зарегистрирован: Август 6, 2012, 2:11 pm
Откуда: СССР

Флаг страны: СССР

Вернуться в Видео DVD



Кто сейчас на конференции

Сейчас эту тему просматривают: нет зарегистрированных пользователей и гости: 1

cron
Ресурс не содержит никакой другой информации, кроме описаний отдельных файлов или их групп, имеющихся у некоторых пользователей данного ресурса. Подтверждением наличия данных файлов у пользователя может иногда являться специальный набор значений, представляющих собой результаты применения односторонних хеш-функций к этим файлам или их группам. Данные наборы значений объединяются пользователями в единое целое и могут быть выложены ими вместе с описаниями имеющихся у них файлов. Администрация данного ресурса не имеет физической возможности убедиться, что описания файлов, выложенные нашими пользователями, равно как и созданные ими наборы хешей от файлов, соответствуют реальным файлам имеющимся у пользователей, а не созданы каким-либо иным способом.
cron
Яндекс.Метрика