Декамерон / Maraviglioso Boccaccio [2015] [ Драма, комедия, история]

Фильмы в формате WEBRip/Avi и т.д.

Оценка торрента

2
0
Голосов нет
3
0
Голосов нет
4
0
Голосов нет
5
0
Голосов нет
1
0
Голосов нет
 
Всего голосов : 0

 Статистика раздачи 
Размер: 4.41 ГБ   |  Зарегистрирован: Октябрь 25, 2015, 6:55 pm   |   .torrent скачан: 1442 раз
Сидеров: 1558  [ 0 байт/сек ]   Личеров: 895  [ 0 байт/сек ]  

Декамерон / Maraviglioso Boccaccio [2015] [ Драма, комедия, история]

Сообщение sergey » Октябрь 25, 2015, 6:55 pm

Название: Декамерон
Оригинальное название: Maraviglioso Boccaccio
Год выпуска: 2015
Жанр: Драма, комедия, история
Выпущено: Италия, Франция, Stemal Entertainment, Cinemaundici, Barbary Films
Режиссер: Паоло Тавиани, Витторио Тавиани
В ролях: Лелло Арена, Паола Кортеллези, Каролина Крешентини, Флавио Паренти, Виттория Пуччини, Микеле Риондино, Ким Росси Стюарт, Риккардо Скамарчио, Касия Смутняк, Жазмин Тринка

О фильме: Флоренция, XIV век. Повсюду свирепствует «Черная смерть» - три юноши и семь девушек сбегают в деревню, чтобы оградить себя от чумы. Там, чтобы скоротать время, они начинают рассказывать друг другу разные истории, посвященные любви.


Качество: WEBRip 720p
Видео: AVC, 5000 Кбит/с, 1280x720
Аудио: AC3, 2 ch, 448 Кбит/с
Продолжительность: 01:55:47
Перевод: Дублированный [Чистый звук]

General
Unique ID : 174237912964782237343234881921526804049 (0x8315005BEC69B1838EDCFDA2C7E02E51)
Complete name : D:ВидеоDeKaMer0n.2015.D.WEBRip.720p.mkv
Format : Matroska
Format version : Version 4 / Version 2
File size : 4.41 GiB
Duration : 1h 55mn
Overall bit rate : 5 449 Kbps
Encoded date : UTC 2015-10-24 18:18:47
Writing application : mkvmerge v8.5.1 ('Where you lead I will follow') 64bit
Writing library : libebml v1.3.3 + libmatroska v1.4.4

Video
ID : 1
Format : AVC
Format/Info : Advanced Video Codec
Format profile : Baseline@L4.1
Format settings, CABAC : No
Format settings, ReFrames : 1 frame
Codec ID : V_MPEG4/ISO/AVC
Duration : 1h 55mn
Bit rate : 5 000 Kbps
Width : 1 280 pixels
Height : 720 pixels
Display aspect ratio : 16:9
Frame rate mode : Constant
Frame rate : 30.000 fps
Color space : YUV
Chroma subsampling : 4:2:0
Bit depth : 8 bits
Scan type : Progressive
Bits/(Pixel*Frame) : 0.181
Stream size : 3.96 GiB (90%)
Title : DeKaMer0n.2015.D.WEBRip.720p.ELEKTRI4KA
Writing library : x264 core 146 r2538 121396c
Encoding settings : cabac=0 / ref=1 / deblock=0:0:0 / analyse=0:0x111 / me=dia / subme=0 / psy=1 / psy_rd=1.00:0.00 / mixed_ref=0 / me_range=16 / chroma_me=1 / trellis=0 / 8x8dct=0 / cqm=0 / deadzone=21,11 / fast_pskip=1 / chroma_qp_offset=0 / threads=12 / lookahead_threads=2 / sliced_threads=0 / nr=0 / decimate=1 / interlaced=0 / bluray_compat=0 / constrained_intra=0 / bframes=0 / weightp=0 / keyint=250 / keyint_min=25 / scenecut=0 / intra_refresh=0 / rc_lookahead=0 / rc=2pass / mbtree=0 / bitrate=5000 / ratetol=1.0 / qcomp=0.60 / qpmin=0 / qpmax=69 / qpstep=4 / cplxblur=20.0 / qblur=0.5 / vbv_maxrate=14000 / vbv_bufsize=14000 / nal_hrd=none / filler=0 / ip_ratio=1.40 / aq=0
Language : Russian
Default : Yes
Forced : No

Audio
ID : 2
Format : AC-3
Format/Info : Audio Coding 3
Mode extension : CM (complete main)
Format settings, Endianness : Big
Codec ID : A_AC3
Duration : 1h 55mn
Bit rate mode : Constant
Bit rate : 448 Kbps
Channel(s) : 2 channels
Channel positions : Front: L R
Sampling rate : 48.0 KHz
Bit depth : 16 bits
Compression mode : Lossy
Stream size : 371 MiB (8%)
Title : Russain AC3 448 Kb/s (2 ch) ELEkTRI4KA
Language : Russian
Default : Yes
Forced : Yes



Название: Декамерон / Maraviglioso Boccaccio
Дата выхода: 2015
Жанр: Драма, комедия, история
   
Торрент: Зарегистрирован [Октябрь 25, 2015, 6:55 pm]
Видео WEBRip Скачать торрент Магнет ссылка Смотреть онлайн
Скачать торрент
[ Размер 22.8 КБ / Просмотров 7 ]
Статус:
Проверен
---
.torrent скачан: 1442 раз
Приватный: Нет (DHT включён)
Размер: 4.41 ГБ (4 732 234 384)
   
Аватара пользователя
sergey
 
Раздал: 42.54 ТБ
Скачал: 198.69 ГБ
Ратио: 265.234
Сообщения: 5350
Зарегистрирован: Август 6, 2012, 2:11 pm
Откуда: СССР

Флаг страны: СССР

  • Похожие торренты
    Ответы
    Просмотры
    Последнее сообщение

Вернуться в Видео WEBRip



Кто сейчас на конференции

Сейчас эту тему просматривают: нет зарегистрированных пользователей и гости: 1

Ресурс не содержит никакой другой информации, кроме описаний отдельных файлов или их групп, имеющихся у некоторых пользователей данного ресурса. Подтверждением наличия данных файлов у пользователя может иногда являться специальный набор значений, представляющих собой результаты применения односторонних хеш-функций к этим файлам или их группам. Данные наборы значений объединяются пользователями в единое целое и могут быть выложены ими вместе с описаниями имеющихся у них файлов. Администрация данного ресурса не имеет физической возможности убедиться, что описания файлов, выложенные нашими пользователями, равно как и созданные ими наборы хешей от файлов, соответствуют реальным файлам имеющимся у пользователей, а не созданы каким-либо иным способом.
cron
Яндекс.Метрика