Атака титанов. Фильм второй: Конец света / Shingeki no kyojin endo obu za wârudo (2015) WEB-DL 1080p

Фильмы в формате WEBRip/Avi и т.д.

Оценка торрента

1
0
Голосов нет
2
0
Голосов нет
3
0
Голосов нет
4
0
Голосов нет
5
0
Голосов нет
 
Всего голосов : 0

 Статистика раздачи 
Размер: 2.92 ГБ   |  Зарегистрирован: Октябрь 29, 2015, 4:02 pm   |   .torrent скачан: 10706 раз
Сидеров: 2790  [ 0 байт/сек ]   Личеров: 400  [ 0 байт/сек ]  

Атака титанов. Фильм второй: Конец света / Shingeki no kyojin endo obu za wârudo (2015) WEB-DL 1080p

Сообщение sergey » Октябрь 29, 2015, 4:02 pm

Информация о фильме
Название: Атака титанов. Фильм второй: Конец света
Оригинальное название: Shingeki no kyojin endo obu za wârudo
Год выпуска: 2015
Жанр: ужасы, фэнтези, боевик, драма
Режиссер: Синдзи Хигути
В ролях: Хироки Хасегава, Каната Хонго, Кико Мидзухара, Такахиро Миура, Нанами Сакураба, Аямэ Мисаки, Сатоми Исихара, Рина Такеда, Пьер Таки, Дзюн Кунимура
О фильме:
Сотни лет назад самым страшным кошмаром людей были Титаны, появившиеся неизвестно откуда. Человечество было для исполинов всего лишь кормом. Когда люди возвели вокруг своих городов огромную защитную стену, жизнь изменилась — в ней появились спокойствие и беззаботность. Как оказалось, лишь на время.

Страх и ужас вернулись, когда стена пала и первобытные гиганты вновь ступили на территорию людей. В неравной борьбе от человечества практически ничего не осталось, а на защиту выживших встаёт парень по имени Эрен, жаждущий мести за смерть своих близких.


Выпущено: Япония / Kodansha Ltd., Licri, Nikkatsu Corporation, Toho Company
Продолжительность: 01:27:14
Озвучивание: Дублированное [iTunes]

Файл
Формат: MKV (H.264)
Качество: WEB-DL 1080p
Видео: 4308 kb/s, 1920x816
Аудио: AC3, 384 kb/s (6 ch)

Format : Matroska
Format version : Version 4 / Version 2
File size : 2.92 GiB
Duration : 1h 27mn
Overall bit rate : 4 787 Kbps
Encoded date : UTC 2015-10-28 19:32:27
Writing application : mkvmerge v8.3.0 ('Over the Horizon') 64bit
Writing library : libebml v1.3.1 + libmatroska v1.4.2

Video
ID : 1
Format : AVC
Format/Info : Advanced Video Codec
Format profile : High@L4
Format settings, CABAC : Yes
Format settings, ReFrames : 5 frames
Codec ID : V_MPEG4/ISO/AVC
Duration : 1h 27mn
Bit rate : 4 308 Kbps
Width : 1 920 pixels
Height : 816 pixels
Display aspect ratio : 2.35:1
Frame rate mode : Constant
Frame rate : 24.000 fps
Color space : YUV
Chroma subsampling : 4:2:0
Bit depth : 8 bits
Scan type : Progressive
Bits/(Pixel*Frame) : 0.115
Stream size : 2.62 GiB (90%)
Language : English
Default : Yes
Forced : No
Color range : Limited
Color primaries : BT.709
Transfer characteristics : BT.709
Matrix coefficients : BT.709

Audio
ID : 2
Format : AC-3
Format/Info : Audio Coding 3
Mode extension : CM (complete main)
Format settings, Endianness : Big
Codec ID : A_AC3
Duration : 1h 27mn
Bit rate mode : Constant
Bit rate : 384 Kbps
Channel(s) : 6 channels
Channel positions : Front: L C R, Side: L R, LFE
Sampling rate : 48.0 KHz
Bit depth : 16 bits
Compression mode : Lossy
Stream size : 240 MiB (8%)
Language : Russian
Default : Yes
Forced : No

Menu
00:00:00.000 : en:Глава 1
00:07:16.000 : en:Глава 2
00:12:29.000 : en:Глава 3
00:19:15.000 : en:Глава 4
00:25:33.000 : en:Глава 5
00:33:08.000 : en:Глава 6
00:40:06.000 : en:Глава 7
00:45:12.000 : en:Глава 8
00:51:58.000 : en:Глава 9
00:57:38.000 : en:Глава 10
01:06:42.000 : en:Глава 11
01:14:04.000 : en:Глава 12
01:18:54.000 : en:Глава 13






   
Торрент: Зарегистрирован [Октябрь 29, 2015, 4:02 pm]
Видео WEBRip Скачать торрент Магнет ссылка Смотреть онлайн
Скачать торрент
[ Размер 4.27 КБ / Просмотров 17 ]
Статус:
Проверен
---
.torrent скачан: 10706 раз
Приватный: Нет (DHT включён)
Размер: 2.92 ГБ (3 132 126 059)
   
Аватара пользователя
sergey
 
Раздал: 42.54 ТБ
Скачал: 198.69 ГБ
Ратио: 265.234
Сообщения: 5343
Зарегистрирован: Август 6, 2012, 2:11 pm
Откуда: СССР

Флаг страны: СССР

  • Похожие торренты
    Ответы
    Просмотры
    Последнее сообщение

Вернуться в Видео WEBRip



Кто сейчас на конференции

Сейчас эту тему просматривают: нет зарегистрированных пользователей и гости: 1

Ресурс не содержит никакой другой информации, кроме описаний отдельных файлов или их групп, имеющихся у некоторых пользователей данного ресурса. Подтверждением наличия данных файлов у пользователя может иногда являться специальный набор значений, представляющих собой результаты применения односторонних хеш-функций к этим файлам или их группам. Данные наборы значений объединяются пользователями в единое целое и могут быть выложены ими вместе с описаниями имеющихся у них файлов. Администрация данного ресурса не имеет физической возможности убедиться, что описания файлов, выложенные нашими пользователями, равно как и созданные ими наборы хешей от файлов, соответствуют реальным файлам имеющимся у пользователей, а не созданы каким-либо иным способом.
cron
Яндекс.Метрика