Воин (2015) WEB-DLRip 720p от New-Team

Фильмы в формате WEBRip/Avi и т.д.

Оценка торрента

1
0
Голосов нет
2
0
Голосов нет
3
0
Голосов нет
4
0
Голосов нет
5
0
Голосов нет
 
Всего голосов : 0

 Статистика раздачи 
Размер: 2.18 ГБ   |  Зарегистрирован: Ноябрь 2, 2015, 2:10 pm   |   .torrent скачан: 793 раз
Сидеров: 639  [ 0 байт/сек ]   Личеров: 521  [ 0 байт/сек ]  

Воин (2015) WEB-DLRip 720p от New-Team

Сообщение sergey » Ноябрь 2, 2015, 2:10 pm

Страна: Россия
Производство: Art Pictures Studio

Жанр: драма, спорт
Год выпуска: 2015
Продолжительность: 01:27:06

Перевод: Не требуется
Cубтитры: нет
Оригинальная аудиодорожка: русский

Режиссер: Алексей Андрианов

В ролях:
Владимир Яглыч, Сергей Бондарчук (мл.), Светлана Ходченкова, Фёдор Бондарчук, Александр Балуев, Александр Новин, Мария Андреева, Алексей Комашко...


Описание:
Роман Родин уходит из морской пехоты и возвращается в родной Калининград. Здесь у него отец и старший брат Вячеслав, но как будто никого: они не семья и давно не общаются. Отец, когда-то талантливый тренер по боксу, мечтавший сделать из сыновей чемпионов, завязал и теперь живет рыбалкой, терзаясь сожалениями. А Слава с женой выбиваются из сил, чтобы заработать на лечение дочки… Шанс все исправить появляется, когда объявляют о международном турнире по смешанным единоборствам с огромным призовым фондом. Оба брата решают участвовать, и Роман обращается за помощью к отцу.
Когда брат пойдет на брата, а сын – на отца, столкнувшись лицом к лицу на ринге, смогут ли они победить призраков прошлого?



Источник: WEB-DL 1080p
Качество видео: WEB-DLRip 720p
Формат видео: MKV

Видео: 1280x532 (2,40:1), 25 fps, H264 ~ 3387 kbps avg, 0.199 bit/pixel
Аудио: 48 kHz, Dolby Digital AC3 2.0, 192 kbps


Общее
Полное имя : Voin.2015.WEB-DLRip720p_[New-team]_by_AVP_Studio.mkv
Формат : Matroska
Версия формата : Version 2
Размер файла : 2,18 Гбайт
Продолжительность : 1 ч. 27 м.
Общий поток : 3578 Кбит/сек
Дата кодирования : UTC 2015-11-01 19:14:14
Программа кодирования : mkvmerge v6.1.0 ('Old Devil') built on Mar 4 2013 09:10:42
Библиотека кодирования : libebml v1.3.0 + libmatroska v1.4.0

Видео
Идентификатор : 1
Формат : AVC
Формат/Информация : Advanced Video Codec
Профиль формата : High@L4.1
Параметр CABAC формата : Да
Параметр ReFrames формата : 8 кадров
Идентификатор кодека : V_MPEG4/ISO/AVC
Продолжительность : 1 ч. 27 м.
Битрейт : 3387 Кбит/сек
Ширина : 1280 пикселей
Высота : 532 пикселя
Соотношение сторон : 2,40:1
Режим частоты кадров : Постоянный
Частота кадров : 25,000 кадров/сек
Цветовое пространство : YUV
Субдискретизация насыщенности : 4:2:0
Битовая глубина : 8 бит
Тип развёртки : Прогрессивная
Бит/(Пиксели*Кадры) : 0.199
Размер потока : 2,02 Гбайт (93%)
Библиотека кодирования : x264 core 148 r2597 e86f3a1
Настройки программы : cabac=1 / ref=8 / deblock=1:-3:-3 / analyse=0x3:0x113 / me=umh / subme=10 / psy=1 / psy_rd=1.00:0.00 / mixed_ref=1 / me_range=32 / chroma_me=1 / trellis=2 / 8x8dct=1 / cqm=0 / deadzone=21,11 / fast_pskip=1 / chroma_qp_offset=-2 / threads=6 / lookahead_threads=1 / sliced_threads=0 / nr=0 / decimate=0 / interlaced=0 / bluray_compat=0 / constrained_intra=0 / bframes=8 / b_pyramid=2 / b_adapt=2 / b_bias=0 / direct=3 / weightb=1 / open_gop=0 / weightp=2 / keyint=250 / keyint_min=25 / scenecut=40 / intra_refresh=0 / rc_lookahead=40 / rc=2pass / mbtree=0 / bitrate=3387 / ratetol=1.0 / qcomp=0.60 / qpmin=0 / qpmax=69 / qpstep=4 / cplxblur=20.0 / qblur=0.5 / vbv_maxrate=50000 / vbv_bufsize=50000 / nal_hrd=none / filler=0 / ip_ratio=1.40 / pb_ratio=1.30 / aq=1:0.80
Default : Да
Forced : Нет

Аудио
Идентификатор : 2
Формат : AC-3
Формат/Информация : Audio Coding 3
Расширение режима : CM (complete main)
Параметр Endianness формата : Big
Идентификатор кодека : A_AC3
Продолжительность : 1 ч. 27 м.
Вид битрейта : Постоянный
Битрейт : 192 Кбит/сек
Каналы : 2 канала
Расположение каналов : Front: L R
Частота : 48,0 КГц
Метод сжатия : С потерями
Размер потока : 120 Мбайт (5%)
Default : Да
Forced : Нет


   
Торрент: Зарегистрирован [Ноябрь 2, 2015, 2:10 pm]
Видео WEBRip Скачать торрент Магнет ссылка Смотреть онлайн
Скачать торрент
[ Размер 12.07 КБ / Просмотров 5 ]
Статус:
Проверен
---
.torrent скачан: 793 раз
Приватный: Нет (DHT включён)
Размер: 2.18 ГБ (2 337 124 696)
   
Аватара пользователя
sergey
 
Раздал: 42.54 ТБ
Скачал: 198.69 ГБ
Ратио: 265.234
Сообщения: 5337
Зарегистрирован: Август 6, 2012, 2:11 pm
Откуда: СССР

Флаг страны: СССР

  • Похожие торренты
    Ответы
    Просмотры
    Последнее сообщение

Вернуться в Видео WEBRip



Кто сейчас на конференции

Сейчас эту тему просматривают: нет зарегистрированных пользователей и гости: 1

Ресурс не содержит никакой другой информации, кроме описаний отдельных файлов или их групп, имеющихся у некоторых пользователей данного ресурса. Подтверждением наличия данных файлов у пользователя может иногда являться специальный набор значений, представляющих собой результаты применения односторонних хеш-функций к этим файлам или их группам. Данные наборы значений объединяются пользователями в единое целое и могут быть выложены ими вместе с описаниями имеющихся у них файлов. Администрация данного ресурса не имеет физической возможности убедиться, что описания файлов, выложенные нашими пользователями, равно как и созданные ими наборы хешей от файлов, соответствуют реальным файлам имеющимся у пользователей, а не созданы каким-либо иным способом.
cron
Яндекс.Метрика