Агенты А.Н.К.Л. / The Man from U.N.C.L.E. (2015) WEB-DL 1080p

Фильмы в формате WEBRip/Avi и т.д.

Оценка торрента

1
0
Голосов нет
2
0
Голосов нет
3
0
Голосов нет
4
0
Голосов нет
5
0
Голосов нет
 
Всего голосов : 0

 Статистика раздачи 
Размер: 4.25 ГБ   |  Зарегистрирован: Ноябрь 4, 2015, 7:29 am   |   .torrent скачан: 1683 раз
Сидеров: 5028  [ 0 байт/сек ]   Личеров: 300  [ 0 байт/сек ]  

Агенты А.Н.К.Л. / The Man from U.N.C.L.E. (2015) WEB-DL 1080p

Сообщение sergey » Ноябрь 4, 2015, 7:29 am

Информация о фильме
Название: Агенты А.Н.К.Л.
Оригинальное название: The Man from U.N.C.L.E.
Год выхода: 2015
Жанр: боевик, комедия, приключения
Режиссер: Гай Ричи
В ролях: Генри Кавилл, Арми Хаммер, Алисия Викандер, Элизабет Дебики, Хью Грант, Лука Кальвани, Сильвестр Грот, Джаред Харрис, Кристиан Беркель, Миша Кузнецов, Гай Уильямс, Марианна Ди Мартино, Джулиан Майкл Деустер, Андреа Каглиши, Риккардо Калваниз

О фильме: Наполеон Соло — агент ЦРУ, на счету которого огромное количество успешно проведенных операций. Он считается одним из лучших секретных агентов во всем мире, и с ним может сравниться только один человек — самый молодой и перспективный агент КГБ, Илья Курякин. Их противостояние переросло в настоящую войну, в которой никто не собирается уступать. Однако обстоятельства складываются так, что непримиримые враги вынуждены стать напарниками. Это происходит после того как спецслужбы двух стран обнаруживают международную преступную организацию, которой удалось создать ядерную бомбу…



Выпущено: США / Davis Entertainment, RatPac-Dune Entertainment, Warner Bros
Продолжительность: 01:56:27
Озвучивание: Дублированное [iTunes]

Файл
Формат: MKV (x.264)
Качество: WEB-DL 1080p
Видео: 4356 kb/s, 1912x792
Аудио: Russian: AC3, 384 kb/s (6 ch) / English: AC3, 384 kb/s (6 ch)
Субтитры: Russian Forced, English

Format : Matroska
Format version : Version 4 / Version 2
File size : 4.25 GiB
Duration : 1h 56mn
Overall bit rate : 5 228 Kbps
Encoded date : UTC 2015-11-02 19:12:08
Writing application : mkvmerge v8.3.0 ('Over the Horizon') 64bit
Writing library : libebml v1.3.1 + libmatroska v1.4.2

Video
ID : 1
Format : AVC
Format/Info : Advanced Video Codec
Format profile : High@L4
Format settings, CABAC : Yes
Format settings, ReFrames : 5 frames
Codec ID : V_MPEG4/ISO/AVC
Duration : 1h 56mn
Bit rate : 4 356 Kbps
Width : 1 912 pixels
Height : 792 pixels
Display aspect ratio : 2.40:1
Frame rate mode : Constant
Frame rate : 23.976 fps
Color space : YUV
Chroma subsampling : 4:2:0
Bit depth : 8 bits
Scan type : Progressive
Bits/(Pixel*Frame) : 0.120
Stream size : 3.54 GiB (83%)
Language : English
Default : Yes
Forced : No
Color range : Limited
Color primaries : BT.709
Transfer characteristics : BT.709
Matrix coefficients : BT.709

Audio #1
ID : 2
Format : AC-3
Format/Info : Audio Coding 3
Mode extension : CM (complete main)
Format settings, Endianness : Big
Codec ID : A_AC3
Duration : 1h 56mn
Bit rate mode : Constant
Bit rate : 384 Kbps
Channel(s) : 6 channels
Channel positions : Front: L C R, Side: L R, LFE
Sampling rate : 48.0 KHz
Bit depth : 16 bits
Compression mode : Lossy
Stream size : 320 MiB (7%)
Language : Russian
Default : Yes
Forced : No

Audio #2
ID : 3
Format : AC-3
Format/Info : Audio Coding 3
Mode extension : CM (complete main)
Format settings, Endianness : Big
Codec ID : A_AC3
Duration : 1h 56mn
Bit rate mode : Constant
Bit rate : 384 Kbps
Channel(s) : 6 channels
Channel positions : Front: L C R, Side: L R, LFE
Sampling rate : 48.0 KHz
Bit depth : 16 bits
Compression mode : Lossy
Stream size : 320 MiB (7%)
Language : English
Default : No
Forced : No

Text #1
ID : 4
Format : UTF-8
Codec ID : S_TEXT/UTF8
Codec ID/Info : UTF-8 Plain Text
Language : Russian
Default : Yes
Forced : No

Text #2
ID : 5
Format : UTF-8
Codec ID : S_TEXT/UTF8
Codec ID/Info : UTF-8 Plain Text
Language : English
Default : No
Forced : No

Menu
00:00:00.000 : en:1
00:15:18.000 : en:2
00:23:10.000 : en:3
00:32:08.000 : en:4
00:40:34.000 : en:5
00:49:06.000 : en:6
00:59:22.000 : en:7
01:08:51.000 : en:8
01:20:27.000 : en:9
01:29:46.000 : en:10
01:43:20.000 : en:11
01:49:22.000 : en:12
   
Торрент: Зарегистрирован [Ноябрь 4, 2015, 7:29 am]
Видео WEBRip Скачать торрент Магнет ссылка Смотреть онлайн
Скачать торрент
[ Размер 5.98 КБ / Просмотров 4 ]
Статус:
Проверен
---
.torrent скачан: 1683 раз
Приватный: Нет (DHT включён)
Размер: 4.25 ГБ (4 566 056 403)
   
Аватара пользователя
sergey
 
Раздал: 42.54 ТБ
Скачал: 198.69 ГБ
Ратио: 265.234
Сообщения: 5347
Зарегистрирован: Август 6, 2012, 2:11 pm
Откуда: СССР

Флаг страны: СССР

  • Похожие торренты
    Ответы
    Просмотры
    Последнее сообщение

Вернуться в Видео WEBRip



Кто сейчас на конференции

Сейчас эту тему просматривают: нет зарегистрированных пользователей и гости: 1

Ресурс не содержит никакой другой информации, кроме описаний отдельных файлов или их групп, имеющихся у некоторых пользователей данного ресурса. Подтверждением наличия данных файлов у пользователя может иногда являться специальный набор значений, представляющих собой результаты применения односторонних хеш-функций к этим файлам или их группам. Данные наборы значений объединяются пользователями в единое целое и могут быть выложены ими вместе с описаниями имеющихся у них файлов. Администрация данного ресурса не имеет физической возможности убедиться, что описания файлов, выложенные нашими пользователями, равно как и созданные ими наборы хешей от файлов, соответствуют реальным файлам имеющимся у пользователей, а не созданы каким-либо иным способом.
cron
Яндекс.Метрика