Монстры на каникулах 2 / Hotel Transylvania 2 (2015) HDTVRip-AVC

Мультфильмы

Оценка торрента

5
0
Голосов нет
4
0
Голосов нет
3
0
Голосов нет
2
0
Голосов нет
1
0
Голосов нет
 
Всего голосов : 0

 Статистика раздачи 
Размер: 1.46 ГБ   |  Зарегистрирован: Декабрь 4, 2015, 7:53 pm   |   .torrent скачан: 3927 раз
Сидеров: 1968  [ 0 байт/сек ]   Личеров: 300  [ 0 байт/сек ]  

Монстры на каникулах 2 / Hotel Transylvania 2 (2015) HDTVRip-AVC

Сообщение sergey » Декабрь 4, 2015, 7:53 pm

Информация о фильме
Название: Монстры на каникулах 2
Оригинальное название: Hotel Transylvania 2
Год выпуска: 2015
Страна: США
Жанр: мультфильм, фэнтези, комедия, семейный

Перевод: Дубляж - [Чистый звук]
Продолжительность: 01:29:13
Режиссер: Генндий Тартаковский
В ролях: Адам Сэндлер (Dracula, озвучка), Энди Сэмберг (Jonathan, озвучка), Селена Гомес (Mavis, озвучка), Кевин Джеймс (Frankenstein, озвучка), Стив Бушеми (Wayne, озвучка), Дэвид Спейд (Griffin, озвучка), Кигэн-Майкл Ки (Murray, озвучка), Эшер Блинкофф (Dennis, озвучка), Фрэн Дрешер (Eunice, озвучка), Молли Шеннон (Wanda, озвучка), Меган Маллалли (Grandma Linda, озвучка), Ник Офферман (Grandpa Mike, озвучка)

Описание:
Граф Дракула выдает свою очаровательную дочь замуж за парня из мира людей, и у молодой «смешанной» пары рождается сын. Станет ли этот ребенок человеком или вампиром?
Рейтинг:

MPAA: PG - Рекомендуется присутствие родителей
Качество: HDTVRip-AVC
Формат: MKV
Видео: AVC, 1024x552 (1.855), 2146 kbps, 30 fps, 0,127 bpp
Аудио: AC3 / 2.0 / 48 kHz / 192 kbps / 16 bit
Семпл

Релиз от: by White Smoke / R.G. Resident

General
Unique ID : 212131979082012487678760402219167555595 (0x9F972210B82924959390C5D8911EA00B)
Complete name : C:M0ns3.Na.Kan1ku1aH.2015.HDTVRip-AVC.by.White Smoke.R.G.Resident.mkv
Format : Matroska
Format version : Version 4 / Version 2
File size : 1.46 GiB
Duration : 1h 29mn
Overall bit rate : 2 339 Kbps
Encoded date : UTC 2015-12-04 08:57:00
Writing application : mkvmerge v6.8.0 ('Theme for Great Cities') 64bit built on Mar 2 2014 21:34:26
Writing library : libebml v1.3.0 + libmatroska v1.4.1

Video
ID : 1
Format : AVC
Format/Info : Advanced Video Codec
Format profile : High@L4.1
Format settings, CABAC : Yes
Format settings, ReFrames : 4 frames
Codec ID : V_MPEG4/ISO/AVC
Duration : 1h 29mn
Bit rate : 2 146 Kbps
Width : 1 024 pixels
Height : 552 pixels
Display aspect ratio : 1.855
Frame rate : 30.000 fps
Color space : YUV
Chroma subsampling : 4:2:0
Bit depth : 8 bits
Scan type : Progressive
Bits/(Pixel*Frame) : 0.127
Stream size : 1.31 GiB (90%)
Writing library : x264 core 146 r2538 121396c
Encoding settings : cabac=1 / ref=4 / deblock=1:-2:-2 / analyse=0x3:0x113 / me=umh / subme=9 / psy=1 / psy_rd=1.00:0.00 / mixed_ref=1 / me_range=32 / chroma_me=1 / trellis=2 / 8x8dct=1 / cqm=0 / deadzone=21,11 / fast_pskip=0 / chroma_qp_offset=-2 / threads=6 / lookahead_threads=1 / sliced_threads=0 / nr=0 / decimate=0 / interlaced=0 / bluray_compat=0 / constrained_intra=0 / bframes=8 / b_pyramid=2 / b_adapt=2 / b_bias=0 / direct=3 / weightb=1 / open_gop=0 / weightp=2 / keyint=250 / keyint_min=25 / scenecut=40 / intra_refresh=0 / rc_lookahead=60 / rc=2pass / mbtree=0 / bitrate=2146 / ratetol=1.0 / qcomp=0.60 / qpmin=0 / qpmax=69 / qpstep=4 / cplxblur=20.0 / qblur=0.5 / vbv_maxrate=14000 / vbv_bufsize=14000 / nal_hrd=none / filler=0 / ip_ratio=1.40 / pb_ratio=1.30 / aq=1:0.80
Default : Yes
Forced : No

Audio
ID : 2
Format : AC-3
Format/Info : Audio Coding 3
Mode extension : CM (complete main)
Codec ID : A_AC3
Duration : 1h 29mn
Bit rate mode : Constant
Bit rate : 192 Kbps
Channel(s) : 2 channels
Channel positions : Front: L R
Sampling rate : 48.0 KHz
Bit depth : 16 bits
Compression mode : Lossy
Stream size : 123 MiB (8%)
Default : Yes
Forced : No

   
Торрент: Зарегистрирован [Декабрь 4, 2015, 7:53 pm]
Мультфильмы Скачать торрент Магнет ссылка Смотреть онлайн
Скачать торрент
[ Размер 15.47 КБ / Просмотров 4 ]
Статус:
Проверен
---
.torrent скачан: 3927 раз
Приватный: Нет (DHT включён)
Размер: 1.46 ГБ (1 565 196 415)
   
Аватара пользователя
sergey
 
Раздал: 42.54 ТБ
Скачал: 198.69 ГБ
Ратио: 265.234
Сообщения: 5350
Зарегистрирован: Август 6, 2012, 2:11 pm
Откуда: СССР

Флаг страны: СССР

Вернуться в Мультфильмы



Кто сейчас на конференции

Сейчас эту тему просматривают: нет зарегистрированных пользователей и гости: 1

Ресурс не содержит никакой другой информации, кроме описаний отдельных файлов или их групп, имеющихся у некоторых пользователей данного ресурса. Подтверждением наличия данных файлов у пользователя может иногда являться специальный набор значений, представляющих собой результаты применения односторонних хеш-функций к этим файлам или их группам. Данные наборы значений объединяются пользователями в единое целое и могут быть выложены ими вместе с описаниями имеющихся у них файлов. Администрация данного ресурса не имеет физической возможности убедиться, что описания файлов, выложенные нашими пользователями, равно как и созданные ими наборы хешей от файлов, соответствуют реальным файлам имеющимся у пользователей, а не созданы каким-либо иным способом.
cron
Яндекс.Метрика