Авиатор / The Aviator [2004 биография HDRip-AVC Дубляж] R.G.Resident

Фильмы в формате DVD

Оценка торрента

5
0
Голосов нет
4
0
Голосов нет
3
0
Голосов нет
2
0
Голосов нет
1
0
Голосов нет
 
Всего голосов : 0

 Статистика раздачи 
Размер: 2.24 ГБ   |  Зарегистрирован: Декабрь 10, 2015, 8:37 am   |   .torrent скачан: 0 раз
Сидеров: 0  [ 0 байт/сек ]   Личеров: 0  [ 0 байт/сек ]  

Авиатор / The Aviator [2004 биография HDRip-AVC Дубляж] R.G.Resident

Сообщение sergey » Декабрь 10, 2015, 8:37 am

Год выпуска: 2004
Страна: США, Германия
Жанр: драма, биография
Длительность: 02:50:06
Перевод: Дубляж
Режиссер: Мартин Скорсезе В ролях:
Леонардо ДиКаприо (Howard Hughes), Кейт Бланшетт (Katharine Hepburn), Мэтт Росс (Glenn Odekirk), Джон Си Райли (Noah Dietrich), Алан Алда (Senator Ralph Owen Brewster), Кейт Бекинсейл (Ava Gardner), Алек Болдуин (Juan Trippe), Иэн Холм (Professor Fitz), Адам Скотт (Johnny Meyer), Дэнни Хьюстон (Jack Frye), Гвен Стефани (Jean Harlow), Джуд Лоу (Errol Flynn)Описание:
Получив от отца небольшую фабрику, Говард Хьюз превратил ее в гигантское, фантастически прибыльное предприятие. Став владельцем огромной кинокомпании, он снял самый дорогой для своего времени фильм и покорил сердца прелестнейших голливудских актрис.
Ему принадлежали самые престижные казино Лас-Вегаса и он установил рекорд скоростных полетов, приобрел вторую по величине коммерческую авиакомпанию...
Деньги жгут сердце Хьюза, они не дают ему покоя, а душа его рвется ввысь. Только там, на высоте нескольких тысяч метров он счастлив по-настоящему. Только там, где все решает лишь мастерство пилота и Бог, ничто не ценится так дорого, как верность и честь.✦ Мировая премьера: 14 декабря 2004

MPAA: PG-13 - Детям до 13 лет просмотр не желателен Качество: HDRip-AVC
Rip by schultz R.G.Resident
Формат: MKV
Видео: AVC, 1152x488 (2.35:1), 1437 kbps, 23,976 fps, 0,107 bpp
Аудио: AC3 / 5.1 / 48 kHz / 448 kbps / 16 bit
Код:
Код: Выделить всё
x264 [info]: frame I:2136  Avg QP:17.29  size: 68093
x264 [info]: frame P:61162 Avg QP:20.68  size: 16807
x264 [info]: frame B:181402 Avg QP:22.58  size:  3246
General
Unique ID                                : 212731528274582645813379616669274995796 (0xA00A9A1F6B76FFDCBE443ECC4AA7FC54)
Название                            : D:\download\The Aviator.2004.HDRip-AVC by schultz R.G.Resident.mkv
Формат                                   : Matroska
Формат version                           : Version 2
Размер файла                                : 2.24 GiB
Длительность                                 : 2h 50mn
Общий Битрейт                         : 1 887 Kbps
Encoded date                             : UTC 2015-12-09 15:39:06
Создано приложением                      : mkvmerge v6.1.0 ('Old Devil') built on Mar  4 2013 09:10:42
Writing library                          : libebml v1.3.0 + libmatroska v1.4.0
[/font]Video
ID                                       : 1
Формат                                   : AVC
Формат/Info                              : Advanced Video Кодек
Формат profile                           : High@L4.1
Формат настройки, CABAC                   : Yes
Формат настройки, ReFrames                : 12 frames
Кодек ID                                 : V_MPEG4/ISO/AVC
Длительность                                 : 2h 50mn
Битрейт                                 : 1 437 Kbps
Width                                    : 1 152 пикселей
Высота                                   : 488 пикселей
Соотношение кадра                     : 2.35:1
Частота кадров                               : 23.976 fps
Цветопередача                              : YUV
Chroma subsampling                       : 4:2:0
Разрядность                                : 8 bits
Тип сканирования                                : Progressive
Bits/(Pixel*Frame)                       : 0.107
Размер потока                              : 1.67 GiB (74%)
Writing library                          : x264 core 130 r2273 b3065e6
Encoding настройки                        : cabac=1 / ref=12 / deblock=1:-2:-2 / analyse=0x3:0x113 / me=umh / subme=11 / psy=1 / psy_rd=1.00:0.15 / mixed_ref=1 / me_range=24 / chroma_me=1 / trellis=2 / 8x8dct=1 / cqm=0 / deadzone=21,11 / fast_pskip=1 / chroma_qp_offset=-3 / threads=12 / lookahead_threads=2 / sliced_threads=0 / nr=0 / decimate=0 / interlaced=0 / bluray_compat=0 / constrained_intra=0 / bframes=9 / b_pyramid=2 / b_adapt=2 / b_bias=0 / direct=3 / weightb=1 / open_gop=0 / weightp=2 / keyint=240 / keyint_min=23 / scenecut=40 / intra_refresh=0 / rc_lookahead=40 / rc=2pass / mbtree=1 / bitrate=1437 / ratetol=1.0 / qcomp=0.60 / qpmin=0 / qpmax=69 / qpstep=4 / cplxblur=20.0 / qblur=0.5 / vbv_maxrate=17500 / vbv_bufsize=14000 / nal_hrd=none / ip_ratio=1.40 / aq=1:0.80
Default                                  : Yes
Forced                                   : No
Audio
ID                                       : 2
Формат                                   : AC-3
Формат/Info                              : Audio Coding 3
Расширение режима                           : CM (complete main)
Кодек ID                                 : A_AC3
Длительность                                 : 2h 50mn
Битрейт mode                            : Constant
Битрейт                                 : 448 Kbps
Каналы(s)                               : 6 каналов
Каналы positions                        : Front: L C R, Side: L R, LFE
Частота                            : 48.0 KHz
Разрядность                                : 16 bits
Режим сжатия                         : Lossy
Размер потока                              : 545 MiB (24%)
Default                                  : Yes
Forced                                   : No


                 
   
Торрент: Зарегистрирован [Декабрь 10, 2015, 8:37 am]
Видео DVD Скачать торрент Магнет ссылка Смотреть онлайн
Скачать торрент
[ Размер 11.63 КБ / Просмотров 3 ]
Статус:
Проверен
---
.torrent скачан: 0 раз
Приватный: Нет (DHT включён)
Размер: 2.24 ГБ (2 407 618 316)
   
Аватара пользователя
sergey
 
Раздал: 42.54 ТБ
Скачал: 198.69 ГБ
Ратио: 265.234
Сообщения: 5350
Зарегистрирован: Август 6, 2012, 2:11 pm
Откуда: СССР

Флаг страны: СССР

  • Похожие торренты
    Ответы
    Просмотры
    Последнее сообщение

Вернуться в Видео DVD



Кто сейчас на конференции

Сейчас эту тему просматривают: нет зарегистрированных пользователей и гости: 1

Ресурс не содержит никакой другой информации, кроме описаний отдельных файлов или их групп, имеющихся у некоторых пользователей данного ресурса. Подтверждением наличия данных файлов у пользователя может иногда являться специальный набор значений, представляющих собой результаты применения односторонних хеш-функций к этим файлам или их группам. Данные наборы значений объединяются пользователями в единое целое и могут быть выложены ими вместе с описаниями имеющихся у них файлов. Администрация данного ресурса не имеет физической возможности убедиться, что описания файлов, выложенные нашими пользователями, равно как и созданные ими наборы хешей от файлов, соответствуют реальным файлам имеющимся у пользователей, а не созданы каким-либо иным способом.
cron
Яндекс.Метрика