Хо-Хо-Хо / Ho Ho Ho (2009) DVDRip | P1

Фильмы в формате DVD

Оценка торрента

5
0
Голосов нет
4
0
Голосов нет
3
0
Голосов нет
2
0
Голосов нет
1
0
Голосов нет
 
Всего голосов : 0

 Статистика раздачи 
Размер: 1.37 ГБ   |  Зарегистрирован: Декабрь 18, 2015, 12:30 am   |   .torrent скачан: 308 раз
Сидеров: 52  [ 0 байт/сек ]   Личеров: 21  [ 0 байт/сек ]  

Хо-Хо-Хо / Ho Ho Ho (2009) DVDRip | P1

Сообщение sergey » Декабрь 18, 2015, 12:30 am

Информация о фильме
Название: Хо-Хо-Хо
Оригинальное название: Ho Ho Ho
Год выхода: 2009
Жанр: драма, комедия, семейный
Режиссер: Хесус дель Серро
В ролях: Штефан Бэникэ мл., Богдан Янку, Алина Кивулеску, Павел Бартос, Валентин Теодосию, Дэниэл Попеску, Гэбриел Костин, Юлия Лазар, Раиса Михай, Ралука Апроду

О фильме:
По стечению обстоятельств мама Хорацио не успела купить ему тот подарок, который он хотел. Ей совестно, тем более что отец Хорацио бросил их, и поэтому она солгала, будто Мош Крэчун (Санта Клаус по-румынски) не смог придти, но сказал, чтобы они пошли в торговый центр, где могут купить Хорацио всё, что он пожелает. В торговом центре Хорацио теряется, пока его мама стоит снаружи с техниками из автосервиса, которых она вызвала, чтобы починили её машину. После того, как Хорацио знакомится с девочкой-цыганкой (воришкой, но с добрым сердцем), он попадает на банду плохих взрослых воров, переодетых в Санта-Клаусов, которые готовятся ограбить ювелирный магазин.


Страна: Румыния / Media Pro Pictures
Продолжительность: 01:41:08
Перевод: профессиональный (одноголосый закадровый) [BBC Saint Petersburg]

Файл
Качество: DVDRip
Формат: AVI
Видео: XviD, 672x384 (1.75:1), 25.000 fps, 1479 kbps
Аудио: русский, AC3 5.1, 48 kHz, 448 kbps

Общее
Полное имя : Ho.Ho.Ho.2009.DVDRip.avi
Формат : AVI
Формат/Информация : Audio Video Interleave
Размер файла : 1,37 Гбайт
Продолжительность : 1 ч. 41 м.
Общий поток : 1937 Кбит/сек
Программа кодирования : VirtualDubMod 1.5.10.2 (build 2540/release)
Библиотека кодирования : VirtualDubMod build 2540/release

Видео
Идентификатор : 0
Формат : MPEG-4 Visual
Профиль формата : Advanced Simple@L5
Параметр BVOP формата : 1
Параметр QPel формата : Нет
Параметр GMC формата : Без точки перехода
Параметр матрицы формата : Выборочная
Идентификатор кодека : XVID
Идентификатор кодека/Подсказка : XviD
Продолжительность : 1 ч. 41 м.
Битрейт : 1479 Кбит/сек
Ширина : 672 пикселя
Высота : 384 пикселя
Соотношение сторон : 16:9
Частота кадров : 25,000 кадров/сек
Цветовое пространство : YUV
Субдискретизация насыщенности : 4:2:0
Битовая глубина : 8 бит
Тип развёртки : Прогрессивная
Метод сжатия : С потерями
Бит/(Пиксели*Кадры) : 0.229
Размер потока : 1,04 Гбайт (76%)
Библиотека кодирования : XviD 1.2.1 (UTC 2008-12-04)

Аудио
Идентификатор : 1
Формат : AC-3
Формат/Информация : Audio Coding 3
Расширение режима : CM (complete main)
Параметр Endianness формата : Big
Идентификатор кодека : 2000
Продолжительность : 1 ч. 41 м.
Вид битрейта : Постоянный
Битрейт : 448 Кбит/сек
Каналы : 6 каналов
Расположение каналов : Front: L C R, Side: L R, LFE
Частота : 48,0 КГц
Битовая глубина : 16 бит
Метод сжатия : С потерями
Размер потока : 324 Мбайт (23%)
Выравнивание : Разделение по промежуткам
Продолжительность промежутка : 40 мс. (1,00 видеокадр)
Время предзагрузки промежутка : 500 мс.
   
Торрент: Зарегистрирован [Декабрь 18, 2015, 12:30 am]
Видео DVD Скачать торрент Магнет ссылка Смотреть онлайн
Скачать торрент
[ Размер 14.45 КБ / Просмотров 5 ]
Статус:
Проверен
---
.torrent скачан: 308 раз
Приватный: Нет (DHT включён)
Размер: 1.37 ГБ (1 469 020 160)
   
Аватара пользователя
sergey
 
Раздал: 42.54 ТБ
Скачал: 198.69 ГБ
Ратио: 265.234
Сообщения: 5348
Зарегистрирован: Август 6, 2012, 2:11 pm
Откуда: СССР

Флаг страны: СССР

  • Похожие торренты
    Ответы
    Просмотры
    Последнее сообщение

Вернуться в Видео DVD



Кто сейчас на конференции

Сейчас эту тему просматривают: нет зарегистрированных пользователей и гости: 1

Ресурс не содержит никакой другой информации, кроме описаний отдельных файлов или их групп, имеющихся у некоторых пользователей данного ресурса. Подтверждением наличия данных файлов у пользователя может иногда являться специальный набор значений, представляющих собой результаты применения односторонних хеш-функций к этим файлам или их группам. Данные наборы значений объединяются пользователями в единое целое и могут быть выложены ими вместе с описаниями имеющихся у них файлов. Администрация данного ресурса не имеет физической возможности убедиться, что описания файлов, выложенные нашими пользователями, равно как и созданные ими наборы хешей от файлов, соответствуют реальным файлам имеющимся у пользователей, а не созданы каким-либо иным способом.
cron
Яндекс.Метрика