Шеф Адам Джонс / Burnt (2015) WEBRip 1080p

Фильмы в формате WEBRip/Avi и т.д.

Оценка торрента

5
0
Голосов нет
4
0
Голосов нет
3
0
Голосов нет
2
0
Голосов нет
1
0
Голосов нет
 
Всего голосов : 0

 Статистика раздачи 
Размер: 2.49 ГБ   |  Зарегистрирован: Декабрь 25, 2015, 7:23 pm   |   .torrent скачан: 250 раз
Сидеров: 402  [ 0 байт/сек ]   Личеров: 849  [ 0 байт/сек ]  

Шеф Адам Джонс / Burnt (2015) WEBRip 1080p

Сообщение sergey » Декабрь 25, 2015, 7:23 pm

Информация о фильме
Название: Шеф Адам Джонс
Оригинальное название: Burnt
Год выхода: 2015
Жанр: драма, комедия
Режиссер: Джон Уэллс
В ролях: Брэдли Купер, Сиенна Миллер, Омар Си, Даниэль Брюль, Ума Турман, Эмма Томпсон, Риккардо Скамарчио, Сэм Кили, Генри Гоодман, Мэттью Риз
О фильме:
В центре сюжета — история некогда знаменитого шеф-повара, который из-за своего пагубного пристрастия теряет собственный ресторан в Париже, пониженный в рейтинге до унизительных двух звезд. Решив не сдаваться, он вновь собирает свою команду, перестраивает лондонский ресторан и надеется получить три звезды.


Выпущено: США / 3 Arts Entertainment, Double Feature Films, PeaPie Films
Продолжительность: 01:36:15
Озвучивание: Дублированное [Чистый звук] Официальное
Файл
Формат: MKV
Качество: WEBRip 1080p
Видео: MPEG-4 AVC, 3432 kb/s, 1920x808
Аудио: AC3, 192 kb/s (2 ch)

Format : Matroska
Format version : Version 2
File size : 2.49 GiB
Duration : 1h 36mn
Overall bit rate : 3 698 Kbps
Encoded date : UTC 2015-12-25 08:34:17
Writing application : mkvmerge v8.3.0 ('Over the Horizon') 64bit
Writing library : libebml v1.3.1 + libmatroska v1.4.2
DURATION : 01:36:15.088000000
NUMBER_OF_FRAMES : 138602
NUMBER_OF_BYTES : 2529654608
_STATISTICS_WRITING_APP : mkvmerge v8.3.0 ('Over the Horizon') 64bit
_STATISTICS_WRITING_DATE_UTC : 2015-12-25 08:34:17
_STATISTICS_TAGS : BPS DURATION NUMBER_OF_FRAMES NUMBER_OF_BYTES

Video
ID : 1
Format : AVC
Format/Info : Advanced Video Codec
Format profile : High@L4.1
Format settings, CABAC : Yes
Format settings, ReFrames : 4 frames
Codec ID : V_MPEG4/ISO/AVC
Duration : 1h 36mn
Bit rate : 3 432 Kbps
Width : 1 920 pixels
Height : 808 pixels
Display aspect ratio : 2.40:1
Frame rate mode : Constant
Frame rate : 24.000 fps
Color space : YUV
Chroma subsampling : 4:2:0
Bit depth : 8 bits
Scan type : Progressive
Bits/(Pixel*Frame) : 0.092
Stream size : 2.31 GiB (93%)
Language : English
Default : Yes
Forced : No

Audio
ID : 2
Format : AC-3
Format/Info : Audio Coding 3
Mode extension : CM (complete main)
Format settings, Endianness : Big
Codec ID : A_AC3
Duration : 1h 36mn
Bit rate mode : Constant
Bit rate : 192 Kbps
Channel(s) : 2 channels
Channel positions : Front: L R
Sampling rate : 48.0 KHz
Bit depth : 16 bits
Compression mode : Lossy
Stream size : 132 MiB (5%)
Language : Russian
Default : Yes
Forced : No






   
Торрент: Зарегистрирован [Декабрь 25, 2015, 7:23 pm]
Видео WEBRip Скачать торрент Магнет ссылка Смотреть онлайн
Скачать торрент
[ Размер 3.74 КБ / Просмотров 5 ]
Статус:
Проверен
---
.torrent скачан: 250 раз
Приватный: Нет (DHT включён)
Размер: 2.49 ГБ (2 669 546 232)
   
Аватара пользователя
sergey
 
Раздал: 42.54 ТБ
Скачал: 198.69 ГБ
Ратио: 265.234
Сообщения: 5348
Зарегистрирован: Август 6, 2012, 2:11 pm
Откуда: СССР

Флаг страны: СССР

  • Похожие торренты
    Ответы
    Просмотры
    Последнее сообщение

Вернуться в Видео WEBRip



Кто сейчас на конференции

Сейчас эту тему просматривают: нет зарегистрированных пользователей и гости: 1

cron
Ресурс не содержит никакой другой информации, кроме описаний отдельных файлов или их групп, имеющихся у некоторых пользователей данного ресурса. Подтверждением наличия данных файлов у пользователя может иногда являться специальный набор значений, представляющих собой результаты применения односторонних хеш-функций к этим файлам или их группам. Данные наборы значений объединяются пользователями в единое целое и могут быть выложены ими вместе с описаниями имеющихся у них файлов. Администрация данного ресурса не имеет физической возможности убедиться, что описания файлов, выложенные нашими пользователями, равно как и созданные ими наборы хешей от файлов, соответствуют реальным файлам имеющимся у пользователей, а не созданы каким-либо иным способом.
cron
Яндекс.Метрика