Ледниковый период: Космическая Скратастрофа / Ice Age: Cosmic Scrat-tastrophe (2015) HDRip

Мультфильмы

Оценка торрента

5
0
Голосов нет
4
0
Голосов нет
3
0
Голосов нет
2
0
Голосов нет
1
0
Голосов нет
 
Всего голосов : 0

 Статистика раздачи 
Размер: 80.22 МБ   |  Зарегистрирован: Декабрь 30, 2015, 8:01 am   |   .torrent скачан: 3 раз
Сидеров: 9  [ 0 байт/сек ]   Личеров: 1  [ 0 байт/сек ]  

Ледниковый период: Космическая Скратастрофа / Ice Age: Cosmic Scrat-tastrophe (2015) HDRip

Сообщение sergey » Декабрь 30, 2015, 8:01 am

Ледниковый период: Космическая Скратастрофа / Ice Age: Cosmic Scrat-tastrophe (2015) HDRip
Производство: США, Blue Sky Studios
Жанр: Мультфильм, короткометражный, комедия

Режиссер: Майк Тёрмайер, Гален Т. Чу
Актеры: Крис Уэдж

Описание:
Blue Sky Studios и 20th Century Fox в преддверии премьеры пятой части анимационного хита «Ледниковый период» представили зрителям короткометражный мультфильм «Космическая Скрата-строфа». Традиционно, авторы киносерии приурочивают выход очередного мультфильма к премьере полнометражного продолжения «Ледникового периода». На этот раз Скрат - любитель орехов, превзошел сам себя. Пытаясь спрятать свою находку, он активирует космическую тарелку, замерзшую во льдах, и отправляется в космос...



Дата мировой премьеры: 6 ноября 2015

Продолжительность: 00:05:20
Качество видео: HDRip
Перевод: Дублированный
Субтитры: Отсутствуют

Видео: MPEG4, XviD, 720x304 (2.35:1), 24.000 fps, 1 896 Kbps (0.361 bit/pixel)
Аудио: AC-3, 48.0 KHz, 6 ch, 192 Kbps, CBR
Код:
Код: Выделить всё
Формат                                   : AVI
Формат/Информация                        : Audio Video Interleave
Размер файла                             : 80,2 Мбайт
Продолжительность                        : 5 м. 20 с.
Общий поток                              : 2098 Кбит/сек
Программа кодирования                    : VirtualDubMod 1.5.10.3 | [url=http://www.virtualdub-fr.org]www.virtualdub-fr.org[/url] || (build 2550/release)
Библиотека кодирования                   : VirtualDubMod build 2550/release

Видео
Идентификатор                            : 0
Формат                                   : MPEG-4 Visual
Профиль формата                          : Advanced Simple@L5
Параметр BVOP формата                    : 1
Параметр QPel формата                    : Нет
Параметр GMC формата                     : Без точки перехода
Параметр матрицы формата                 : Default (MPEG)
Идентификатор кодека                     : XVID
Идентификатор кодека/Подсказка           : XviD
Продолжительность                        : 5 м. 20 с.
Битрейт                                  : 1896 Кбит/сек
Ширина                                   : 720 пикселей
Высота                                   : 304 пикселя
Соотношение сторон                       : 2,35:1
Частота кадров                           : 24,000 кадра/сек
Цветовое пространство                    : YUV
Субдискретизация насыщенности            : 4:2:0
Битовая глубина                          : 8 бит
Тип развёртки                            : Прогрессивная
Метод сжатия                             : С потерями
Бит/(Пиксели*Кадры)                      : 0.361
Размер потока                            : 72,5 Мбайт (90%)
Библиотека кодирования                   : XviD 1.2.1 (UTC 2008-12-04)

Аудио
Идентификатор                            : 1
Формат                                   : AC-3
Формат/Информация                        : Audio Coding 3
Расширение режима                        : CM (complete main)
Параметр Endianness формата              : Big
Идентификатор кодека                     : 2000
Продолжительность                        : 5 м. 20 с.
Вид битрейта                             : Постоянный
Битрейт                                  : 192 Кбит/сек
Каналы                                   : 6 каналов
Расположение каналов                     : Front: L C R, Side: L R, LFE
Частота                                  : 48,0 КГц
Битовая глубина                          : 16 бит
Метод сжатия                             : С потерями
Размер потока                            : 7,34 Мбайт (9%)
Выравнивание                             : Разделение по промежуткам
Продолжительность промежутка             : 42  мс. (1,00 видеокадр)
Время предзагрузки промежутка            : 500  мс.
 

Скриншоты:

   
Торрент: Зарегистрирован [Декабрь 30, 2015, 8:01 am]
Мультфильмы Скачать торрент Магнет ссылка Смотреть онлайн
Скачать торрент
[ Размер 13.41 КБ / Просмотров 12 ]
Статус:
Проверен
---
.torrent скачан: 3 раз
Приватный: Нет (DHT включён)
Размер: 80.22 МБ (84 115 456)
   
Аватара пользователя
sergey
 
Раздал: 42.54 ТБ
Скачал: 198.69 ГБ
Ратио: 265.263
Сообщения: 5358
Зарегистрирован: Август 6, 2012, 2:11 pm
Откуда: СССР

Флаг страны: СССР

Вернуться в Мультфильмы



Кто сейчас на конференции

Сейчас эту тему просматривают: нет зарегистрированных пользователей и гости: 1

Ресурс не содержит никакой другой информации, кроме описаний отдельных файлов или их групп, имеющихся у некоторых пользователей данного ресурса. Подтверждением наличия данных файлов у пользователя может иногда являться специальный набор значений, представляющих собой результаты применения односторонних хеш-функций к этим файлам или их группам. Данные наборы значений объединяются пользователями в единое целое и могут быть выложены ими вместе с описаниями имеющихся у них файлов. Администрация данного ресурса не имеет физической возможности убедиться, что описания файлов, выложенные нашими пользователями, равно как и созданные ими наборы хешей от файлов, соответствуют реальным файлам имеющимся у пользователей, а не созданы каким-либо иным способом.
cron
Яндекс.Метрика