SOS, Дед Мороз или Все сбудется! (2015) WEB-DL 720p

Фильмы в формате WEBRip/Avi и т.д.

Оценка торрента

5
0
Голосов нет
4
0
Голосов нет
3
0
Голосов нет
2
0
Голосов нет
1
0
Голосов нет
 
Всего голосов : 0

 Статистика раздачи 
Размер: 2.69 ГБ   |  Зарегистрирован: Декабрь 31, 2015, 8:26 am   |   .torrent скачан: 1 раз
Сидеров: 0  [ 0 байт/сек ]   Личеров: 5  [ 0 байт/сек ]  

SOS, Дед Мороз или Все сбудется! (2015) WEB-DL 720p

Сообщение sergey » Декабрь 31, 2015, 8:26 am

Название: SOS, Дед Мороз или Все сбудется!
Оригинальное название: SOS, Дед Мороз или Все сбудется!
Год выхода: 2015
Жанр: комедия, семейный
Режиссер: Арман Геворгян
В ролях: Михаил Беспалов, Софья Спектор, Анатолий Белый, Алёна Бабенко, Дмитрий Назаров, Андрей Бедняков, Оксана Акиньшина, Алексей Бардуков, Полина Максимова, Сергей Рост

О фильме: Света отчаянно хочет, чтобы ее родители помирились. Она верит, что эту мечту обязательно исполнит Дед Мороз, только стоит найти его и попросить об этом. Как же кстати он встречается Свете как раз накануне Нового года. Только вот девочка приняла за Деда Мороза переодетого мошенника и обаятельного афериста Мышкина. Теперь эта парочка на пути к исполнению своих желаний вовлечет в круговорот новогодних приключений еще десяток ни в чем неповинных людей, у которых теперь тоже появится надежда встретить эту новогоднюю ночь счастливыми.



Выпущено: Россия
Продолжительность: 01:26:19
Озвучивание: Оригинальное [iTunes]

Файл
Формат: MKV
Качество: WEB-DL 720p
Видео: MPEG-4 AVC, 3953 kb/s, 1280@960x536
Аудио: AC3, 384 kb/s (6 ch)
Format : Matroska
Format version : Version 4 / Version 2
File size : 2.69 GiB
Duration : 1h 26mn
Overall bit rate : 4 426 Kbps
Encoded date : UTC 2015-12-30 20:09:13
Writing application : mkvmerge v8.3.0 ('Over the Horizon') 64bit
Writing library : libebml v1.3.1 + libmatroska v1.4.2

Video
ID : 1
Format : AVC
Format/Info : Advanced Video Codec
Format profile :
Format settings, CABAC : No
Format settings, ReFrames : 2 frames
Codec ID : V_MPEG4/ISO/AVC
Duration : 1h 26mn
Bit rate : 3 953 Kbps
Width : 960 pixels
Height : 536 pixels
Display aspect ratio : 2.40:1
Frame rate mode : Constant
Frame rate : 25.000 fps
Color space : YUV
Chroma subsampling : 4:2:0
Bit depth : 8 bits
Scan type : Progressive
Bits/(Pixel*Frame) : 0.307
Stream size : 2.40 GiB (89%)
Language : English
Default : Yes
Forced : No
Color range : Limited
Color primaries : BT.709
Transfer characteristics : BT.709
Matrix coefficients : BT.709

Audio
ID : 2
Format : AC-3
Format/Info : Audio Coding 3
Mode extension : CM (complete main)
Format settings, Endianness : Big
Codec ID : A_AC3
Duration : 1h 26mn
Bit rate mode : Constant
Bit rate : 384 Kbps
Channel(s) : 6 channels
Channel positions : Front: L C R, Side: L R, LFE
Sampling rate : 48.0 KHz
Bit depth : 16 bits
Compression mode : Lossy
Stream size : 239 MiB (9%)
Language : Russian
Default : Yes
Forced : No

Menu
00:00:00.000 : en:Глава 1
00:05:34.000 : en:Глава 2
00:10:48.000 : en:Глава 3
00:16:37.000 : en:Глава 4
00:21:55.000 : en:Глава 5
00:27:11.000 : en:Глава 6
00:32:54.000 : en:Глава 7
00:37:57.000 : en:Глава 8
00:43:25.000 : en:Глава 9
00:48:29.000 : en:Глава 10
00:54:24.000 : en:Глава 11
00:59:41.000 : en:Глава 12
01:05:15.000 : en:Глава 13
01:10:36.000 : en:Глава 14
01:15:59.000 : en:Глава 15
01:21:13.000 : en:Глава 16
   
Торрент: Зарегистрирован [Декабрь 31, 2015, 8:26 am]
Видео WEBRip Скачать торрент Магнет ссылка Смотреть онлайн
Скачать торрент
[ Размер 27.54 КБ / Просмотров 9 ]
Статус:
Проверен
---
.torrent скачан: 1 раз
Приватный: Нет (DHT включён)
Размер: 2.69 ГБ (2 887 213 695)
   
Аватара пользователя
sergey
 
Раздал: 42.54 ТБ
Скачал: 198.69 ГБ
Ратио: 265.234
Сообщения: 5348
Зарегистрирован: Август 6, 2012, 2:11 pm
Откуда: СССР

Флаг страны: СССР

  • Похожие торренты
    Ответы
    Просмотры
    Последнее сообщение

Вернуться в Видео WEBRip



Кто сейчас на конференции

Сейчас эту тему просматривают: нет зарегистрированных пользователей и гости: 1

Ресурс не содержит никакой другой информации, кроме описаний отдельных файлов или их групп, имеющихся у некоторых пользователей данного ресурса. Подтверждением наличия данных файлов у пользователя может иногда являться специальный набор значений, представляющих собой результаты применения односторонних хеш-функций к этим файлам или их группам. Данные наборы значений объединяются пользователями в единое целое и могут быть выложены ими вместе с описаниями имеющихся у них файлов. Администрация данного ресурса не имеет физической возможности убедиться, что описания файлов, выложенные нашими пользователями, равно как и созданные ими наборы хешей от файлов, соответствуют реальным файлам имеющимся у пользователей, а не созданы каким-либо иным способом.
cron
Яндекс.Метрика