Superнянь 2 / Babysitting 2 (2015) WEB-DL 720p

Фильмы в формате WEBRip/Avi и т.д.

Оценка торрента

5
0
Голосов нет
4
0
Голосов нет
3
0
Голосов нет
2
0
Голосов нет
1
0
Голосов нет
 
Всего голосов : 0

 Статистика раздачи 
Размер: 2.87 ГБ   |  Зарегистрирован: Январь 1, 2016, 7:11 am   |   .torrent скачан: 582 раз
Сидеров: 612  [ 0 байт/сек ]   Личеров: 13  [ 0 байт/сек ]  

Superнянь 2 / Babysitting 2 (2015) WEB-DL 720p

Сообщение sergey » Январь 1, 2016, 7:11 am

Информация о фильме
Название: Superнянь 2
Оригинальное название: Babysitting 2
Год выхода: 2015
Жанр: комедия
Режиссер: Николас Бенаму, Филипп Лашо
В ролях: Филипп Лашо, Алис Давид, Венсан Дезанья, Тарек Будали, Кристиан Клавье, Жюльен Аррути, Грегуар Людиг, Давид Марсе, Шарлотта Габрис, Бето Бенитес
О фильме:
Влюбленная парочка Фрэнк и Соня приглашают своих друзей на отдых в Бразилию, в роскошный отель богатенького папы Сони. Планировалось, что это будет отдых мечты, а Фрэнк сделает Соне предложение посреди всей этой экзотики. Но его попытки получить одобрение отца оборачиваются полным провалом. Ведь с такими друзьями, как у него, и враги не нужны! Но настоящая катастрофа — впереди. Когда друзья — сексуально озабоченный Сэм, наивный чудак Эрнест и умственно отсталый Алекс — вместе с беднягой Фрэнком собрались на экскурсию, ушлый папаша пользуется возможностью и засылает в джунгли с этой бандой свою крикливую и надоедливую старушку. В общем, Амазонка и ее девственные леса еще никогда не были в такой опасности!


Выпущено: Франция / Axel Films, Film Factory
Продолжительность: 01:32:41
Озвучивание: Дублированное [iTunes]

Файл
Формат: MKV
Качество: WEB-DL 720p
Видео: MPEG-4 AVC, 3963 kb/s, 1280x720
Аудио: AC3, 384 kb/s (6 ch)

Format : Matroska
Format version : Version 2
File size : 2.87 GiB
Duration : 1h 32mn
Overall bit rate : 4 435 Kbps
Encoded date : UTC 2015-12-31 20:29:33
Writing application : mkvmerge v8.3.0 ('Over the Horizon') 64bit
Writing library : libebml v1.3.1 + libmatroska v1.4.2

Video
ID : 1
Format : AVC
Format/Info : Advanced Video Codec
Format profile : High@L4.1
Format settings, CABAC : Yes
Format settings, ReFrames : 2 frames
Codec ID : V_MPEG4/ISO/AVC
Duration : 1h 32mn
Bit rate : 3 963 Kbps
Width : 1 280 pixels
Height : 720 pixels
Display aspect ratio : 16:9
Frame rate mode : Constant
Frame rate : 24.000 fps
Color space : YUV
Chroma subsampling : 4:2:0
Bit depth : 8 bits
Scan type : Progressive
Bits/(Pixel*Frame) : 0.179
Stream size : 2.57 GiB (89%)
Language : English
Default : Yes
Forced : No

Audio
ID : 2
Format : AC-3
Format/Info : Audio Coding 3
Mode extension : CM (complete main)
Format settings, Endianness : Big
Codec ID : A_AC3
Duration : 1h 32mn
Bit rate mode : Constant
Bit rate : 384 Kbps
Channel(s) : 6 channels
Channel positions : Front: L C R, Side: L R, LFE
Sampling rate : 48.0 KHz
Bit depth : 16 bits
Compression mode : Lossy
Stream size : 255 MiB (9%)
Language : Russian
Default : Yes
Forced : No

Menu
00:00:00.000 : en:Глава 1
00:05:23.000 : en:Глава 2
00:11:12.000 : en:Глава 3
00:16:49.000 : en:Глава 4
00:22:20.000 : en:Глава 5
00:27:57.000 : en:Глава 6
00:33:22.000 : en:Глава 7
00:38:34.000 : en:Глава 8
00:44:03.000 : en:Глава 9
00:50:17.000 : en:Глава 10
00:56:20.000 : en:Глава 11
01:01:31.000 : en:Глава 12
01:06:45.000 : en:Глава 13
01:12:06.000 : en:Глава 14
01:17:41.000 : en:Глава 15
01:23:36.000 : en:Глава 16








   
Торрент: Зарегистрирован [Январь 1, 2016, 7:11 am]
Видео WEBRip Скачать торрент Магнет ссылка Смотреть онлайн
Скачать торрент
[ Размер 4.21 КБ / Просмотров 9 ]
Статус:
Проверен
---
.torrent скачан: 582 раз
Приватный: Нет (DHT включён)
Размер: 2.87 ГБ (3 083 114 430)
   
Аватара пользователя
sergey
 
Раздал: 42.54 ТБ
Скачал: 198.69 ГБ
Ратио: 265.234
Сообщения: 5347
Зарегистрирован: Август 6, 2012, 2:11 pm
Откуда: СССР

Флаг страны: СССР

  • Похожие торренты
    Ответы
    Просмотры
    Последнее сообщение

Вернуться в Видео WEBRip



Кто сейчас на конференции

Сейчас эту тему просматривают: нет зарегистрированных пользователей и гости: 1

Ресурс не содержит никакой другой информации, кроме описаний отдельных файлов или их групп, имеющихся у некоторых пользователей данного ресурса. Подтверждением наличия данных файлов у пользователя может иногда являться специальный набор значений, представляющих собой результаты применения односторонних хеш-функций к этим файлам или их группам. Данные наборы значений объединяются пользователями в единое целое и могут быть выложены ими вместе с описаниями имеющихся у них файлов. Администрация данного ресурса не имеет физической возможности убедиться, что описания файлов, выложенные нашими пользователями, равно как и созданные ими наборы хешей от файлов, соответствуют реальным файлам имеющимся у пользователей, а не созданы каким-либо иным способом.
cron
Яндекс.Метрика