Имоджен / Girl Most Likely (2012) BDRip 720p

Фильмы в формате DVD

Оценка торрента

5
0
Голосов нет
4
0
Голосов нет
3
0
Голосов нет
2
0
Голосов нет
1
0
Голосов нет
 
Всего голосов : 0

 Статистика раздачи 
Размер: 4.32 ГБ   |  Зарегистрирован: Январь 1, 2016, 7:24 am   |   .torrent скачан: 10 раз
Сидеров: 2  [ 0 байт/сек ]   Личеров: 0  [ 0 байт/сек ]  

Имоджен / Girl Most Likely (2012) BDRip 720p

Сообщение sergey » Январь 1, 2016, 7:24 am

Информация о фильме
Название: Имоджен
Оригинальное название: Girl Most Likely
Год выхода: 2012
Жанр: комедия
Режиссер: Шари Спрингер Берман, Роберт Пульчини
В ролях: Кристен Уиг, Аннетт Бенинг, Мэтт Диллон, Даррен Крисс, Кристофер Фицджералд, Джун Рафаэль, Наташа Лионн, Боб Бэлабан, Сидни Лукас

О фильме:
Это история успешной нью-йоркской писательницы, которая изображает попытку самоубийства для того, чтобы вернуть экс-бойфренда.



Страна: США
Производство: Ambush Entertainment, Anonymous Content, Foggy Bottom Pictures, Maven Pictures
Продолжительность: 01:43:11
Перевод: Профессиональный (многоголосый) [Лицензия R5]
Субтитры: Русские, Английские
Дополнительно: Сохранены оригинальные чаптеры как на Blu-Ray

Файл
Качество: BDRip 720p
Формат: MKV
Видео: AVC, 1280x720 (16:9) at 23.976 fps, AVC at 5165 kbps avg, 0.234 bit/pixel
Аудио 1: Русский / AC3 / 6ch / 384 kbps | Профессиональный [многоголосый]
Аудио 2: Английский / AC3 / 6ch / 448 kbps | Original



General
Unique ID                      : 253299389547796722618546669707829583613 (0xBE8FB01BB08E77FDB7A190697B4E1EFD)
Complete name                  : H:Girl.Most.Likely.2013.BD.720.Hot-Film.mkv
Format                         : Matroska
Format version                 : Version 2
File size                      : 4.32 GiB
Duration                       : 1h 43mn
Overall bit rate               : 5 996 Kbps
Encoded date                   : UTC 2013-12-28 21:46:11
Writing application            : mkvmerge v5.8.0 ('No Sleep / Pillow') built on Sep  2 2012 15:37:04
Writing library                : libebml v1.2.3 + libmatroska v1.3.0
Attachment                     : Yes

Video
ID                             : 1
Format                         : AVC
Format/Info                    : Advanced Video Codec
Format profile                 : High@L4.1
Format settings, CABAC         : Yes
Format settings, ReFrames      : 9 frames
Codec ID                       : V_MPEG4/ISO/AVC
Duration                       : 1h 43mn
Bit rate                       : 5 165 Kbps
Width                          : 1 280 pixels
Height                         : 720 pixels
Display aspect ratio           : 16:9
Frame rate mode                : Constant
Frame rate                     : 23.976 fps
Color space                    : YUV
Chroma subsampling             : 4:2:0
Bit depth                      : 8 bits
Scan type                      : Progressive
Bits/(Pixel*Frame)             : 0.234
Stream size                    : 3.64 GiB (84%)
Writing library                : x264 core 133 r2334 a3ac64b
Encoding settings              : cabac=1 / ref=9 / deblock=1:-3:-3 / analyse=0x3:0x113 / me=umh / subme=10 / psy=1 / psy_rd=1.02:0.10 / mixed_ref=1 / me_range=32 / chroma_me=1 / trellis=2 / 8x8dct=1 / cqm=0 / deadzone=21,11 / fast_pskip=0 / chroma_qp_offset=-3 / threads=2 / lookahead_threads=1 / sliced_threads=0 / nr=0 / decimate=0 / interlaced=0 / bluray_compat=0 / constrained_intra=0 / bframes=10 / b_pyramid=2 / b_adapt=2 / b_bias=0 / direct=3 / weightb=1 / open_gop=0 / weightp=2 / keyint=240 / keyint_min=23 / scenecut=40 / intra_refresh=0 / rc_lookahead=40 / rc=2pass / mbtree=0 / bitrate=5165 / ratetol=1.0 / qcomp=0.60 / qpmin=0 / qpmax=69 / qpstep=4 / cplxblur=20.0 / qblur=0.5 / vbv_maxrate=50000 / vbv_bufsize=62500 / nal_hrd=none / ip_ratio=1.40 / pb_ratio=1.30 / aq=1:0.80
Language                       : English
Default                        : Yes
Forced                         : No

Audio #1
ID                             : 2
Format                         : AC-3
Format/Info                    : Audio Coding 3
Mode extension                 : CM (complete main)
Format settings, Endianness    : Big
Codec ID                       : A_AC3
Duration                       : 1h 43mn
Bit rate mode                  : Constant
Bit rate                       : 384 Kbps
Channel(s)                     : 6 channels
Channel positions              : Front: L C R, Side: L R, LFE
Sampling rate                  : 48.0 KHz
Bit depth                      : 16 bits
Compression mode               : Lossy
Stream size                    : 283 MiB (6%)
Language                       : Russian
Default                        : Yes
Forced                         : No

Audio #2
ID                             : 3
Format                         : AC-3
Format/Info                    : Audio Coding 3
Mode extension                 : CM (complete main)
Format settings, Endianness    : Big
Codec ID                       : A_AC3
Duration                       : 1h 43mn
Bit rate mode                  : Constant
Bit rate                       : 448 Kbps
Channel(s)                     : 6 channels
Channel positions              : Front: L C R, Side: L R, LFE
Sampling rate                  : 48.0 KHz
Bit depth                      : 16 bits
Compression mode               : Lossy
Stream size                    : 331 MiB (7%)
Language                       : English
Default                        : No
Forced                         : No

Text #1
ID                             : 4
Format                         : UTF-8
Codec ID                       : S_TEXT/UTF8
Codec ID/Info                  : UTF-8 Plain Text
Language                       : Russian
Default                        : No
Forced                         : No

Text #2
ID                             : 5
Format                         : UTF-8
Codec ID                       : S_TEXT/UTF8
Codec ID/Info                  : UTF-8 Plain Text
Language                       : English
Default                        : No
Forced                         : No

Menu
00:00:00.000                   : :Chapter 01
00:07:13.808                   : :Chapter 02
00:17:45.106                   : :Chapter 03
00:26:20.704                   : :Chapter 04
00:31:55.122                   : :Chapter 05
00:39:43.631                   : :Chapter 06
00:48:09.512                   : :Chapter 07
00:58:37.931                   : :Chapter 08
01:08:56.299                   : :Chapter 09
01:17:51.917                   : :Chapter 10
01:29:10.428                   : :Chapter 11
01:35:09.037                   : :Chapter 12
   
Торрент: Зарегистрирован [Январь 1, 2016, 7:24 am]
Видео DVD Скачать торрент Магнет ссылка Смотреть онлайн
Скачать торрент
[ Размер 22.09 КБ / Просмотров 4 ]
Статус:
Проверен
---
.torrent скачан: 10 раз
Приватный: Нет (DHT включён)
Размер: 4.32 ГБ (4 640 315 595)
   
Аватара пользователя
sergey
 
Раздал: 42.54 ТБ
Скачал: 198.69 ГБ
Ратио: 265.234
Сообщения: 5350
Зарегистрирован: Август 6, 2012, 2:11 pm
Откуда: СССР

Флаг страны: СССР

Вернуться в Видео DVD



Кто сейчас на конференции

Сейчас эту тему просматривают: нет зарегистрированных пользователей и гости: 1

Ресурс не содержит никакой другой информации, кроме описаний отдельных файлов или их групп, имеющихся у некоторых пользователей данного ресурса. Подтверждением наличия данных файлов у пользователя может иногда являться специальный набор значений, представляющих собой результаты применения односторонних хеш-функций к этим файлам или их группам. Данные наборы значений объединяются пользователями в единое целое и могут быть выложены ими вместе с описаниями имеющихся у них файлов. Администрация данного ресурса не имеет физической возможности убедиться, что описания файлов, выложенные нашими пользователями, равно как и созданные ими наборы хешей от файлов, соответствуют реальным файлам имеющимся у пользователей, а не созданы каким-либо иным способом.
cron
Яндекс.Метрика