Перекрестный огонь / Bad Country (2014) DVDRip-AVC

Фильмы в формате DVD

Оценка торрента

5
0
Голосов нет
4
0
Голосов нет
3
0
Голосов нет
2
0
Голосов нет
1
0
Голосов нет
 
Всего голосов : 0

 Статистика раздачи 
Размер: 1.68 ГБ   |  Зарегистрирован: Январь 9, 2016, 7:38 pm   |   .torrent скачан: 0 раз
Сидеров: 0  [ 0 байт/сек ]   Личеров: 0  [ 0 байт/сек ]  

Перекрестный огонь / Bad Country (2014) DVDRip-AVC

Сообщение sergey » Январь 9, 2016, 7:38 pm

Информация о фильме
Название: Перекрестный огонь
Оригинальное название: Bad Country
Год выпуска: 2014
Жанр: Триллер, драма, детектив, боевик, криминал
Режиссер: Крис Бринкер
В ролях: Уиллем Дефо, Эми Смарт, Мэтт Диллон, Крис Маркетт, Том Беренджер, Нил МакДонаф, Дж.Д. Эвермор, Кристофер Денэм, Кевин Чэпмен, Билл Дьюк

Описание: Фильм снят по реальным событиям. Расследование детектива Бада Картера приводит к аресту Джесси Вейланда, наемного убийцы из преступного синдиката. Вейланд осознает, что попав в тюрьму, он потеряет свою семью, и решает довериться Картеру, став его информатором.



Страна: США
Студия: ANA Media, CB Productions, Mandalay Vision, Whiskey Bay, Wilmor Entertainment
Продолжительность: 01:40:06
Перевод: Профессиональный многоголосый (Лицензия)

Файл
Качество: DVDRip (AVC)
Видео: MPEG-4 AVC, 1571 Кбит/с, 720x574@1024x574, 25.000 кадр/с
Аудио #1: Русский (AC3, 6 ch, 384 Кбит/с) / Профессиональный многоголосый
Аудио #2: Английский (AC3, 6 ch, 448 Кбит/с)
Субтитры: Английские



За исходный ДВД спасибо BitHQ
x264 [info]: frame I:1354  Avg QP:14.27  size: 46256
x264 [info]: frame P:42380 Avg QP:17.64  size: 15339
x264 [info]: frame B:106416 Avg QP:19.86  size:  4378
x264 [info]: consecutive B-frames:  5.6%  8.5% 21.2% 13.6% 18.1% 24.8%  5.4%  0.4%  0.3%  0.1%  0.2%  1.7%
x264 [info]: mb I  I16..4:  5.1% 82.8% 12.1%
x264 [info]: mb P  I16..4:  2.2% 14.1%  1.5%  P16..4: 39.7% 22.1% 12.5%  0.0%  0.0%    skip: 7.9%
x264 [info]: mb B  I16..4:  0.1%  0.7%  0.1%  B16..8: 37.4%  8.0%  1.9%  direct: 5.7%  skip:46.2%  L0:39.2% L1:40.1% BI:20.7%
x264 [info]: 8x8 transform intra:79.7% inter:57.2%
x264 [info]: direct mvs  spatial:96.8% temporal:3.2%
x264 [info]: coded y,uvDC,uvAC intra: 77.1% 74.2% 47.1% inter: 20.0% 19.9% 7.4%
x264 [info]: i16 v,h,dc,p: 29% 13%  9% 50%
x264 [info]: i8 v,h,dc,ddl,ddr,vr,hd,vl,hu: 24% 12% 21%  5%  6%  9%  6%  9%  8%
x264 [info]: i4 v,h,dc,ddl,ddr,vr,hd,vl,hu: 22%  9%  6%  8% 13% 15% 10% 10%  8%
x264 [info]: i8c dc,h,v,p: 38% 24% 25% 12%
x264 [info]: Weighted P-Frames: Y:8.4% UV:4.8%
x264 [info]: ref P L0: 53.9%  9.5% 17.4%  5.5%  4.4%  3.2%  2.6%  1.5%  1.4%  0.6%  0.0%
x264 [info]: ref B L0: 80.9% 11.1%  3.6%  1.7%  1.1%  0.9%  0.5%  0.2%
x264 [info]: ref B L1: 93.9%  6.1%
x264 [info]: kb/s:1569.92
Формат                                   : Matroska
Версия формата                           : Version 4 / Version 2
Размер файла                             : 1,68 Гбайт
Продолжительность                        : 1 ч. 40 м.
Общий поток                              : 2404 Кбит/сек
Название фильма                          : -=MediaClub-kaspr=-
Дата кодирования                         : UTC 2014-03-10 16:36:46
Программа кодирования                    : mkvmerge v6.8.0 ('Theme for Great Cities') 64bit built on Mar  2 2014 21:34:26
Библиотека кодирования                   : libebml v1.3.0 + libmatroska v1.4.1

Видео
Идентификатор                            : 1
Формат                                   : AVC
Формат/Информация                        : Advanced Video Codec
Профиль формата                          : High@L4.1
Параметр CABAC формата                   : Да
Параметр ReFrames формата                : 9 кадров
Идентификатор кодека                     : V_MPEG4/ISO/AVC
Продолжительность                        : 1 ч. 40 м.
Битрейт                                  : 1571 Кбит/сек
Ширина                                   : 720 пикселей
Высота                                   : 574 пикселя
Соотношение сторон                       : 16:9
Режим частоты кадров                     : Постоянный
Частота кадров                           : 25,000 кадров/сек
Цветовое пространство                    : YUV
Субдискретизация насыщенности            : 4:2:0
Битовая глубина                          : 8 бит
Тип развёртки                            : Прогрессивная
Бит/(Пиксели*Кадры)                      : 0.152
Размер потока                            : 1,07 Гбайт (63%)
Заголовок                                : -=MediaClub-kaspr=-
Библиотека кодирования                   : x264 core 142 r2389+41 02cb608 tMod [8-bit@4:2:0 X86_64]
Настройки программы                      : cabac=1 / ref=9 / deblock=1:-3:-3 / analyse=0x3:0x113 / me=umh / subme=10 / psy=1 / fade_compensate=0.00 / psy_rd=1.00:0.20 / mixed_ref=1 / me_range=32 / chroma_me=1 / trellis=2 / 8x8dct=1 / cqm=0 / deadzone=21,11 / fast_pskip=0 / chroma_qp_offset=-3 / threads=12 / lookahead_threads=3 / sliced_threads=0 / nr=0 / decimate=0 / interlaced=0 / bluray_compat=0 / constrained_intra=0 / fgo=0 / bframes=11 / b_pyramid=2 / b_adapt=2 / b_bias=0 / direct=3 / weightb=1 / open_gop=0 / weightp=2 / keyint=250 / keyint_min=25 / scenecut=40 / intra_refresh=0 / rc=2pass / mbtree=0 / bitrate=1571 / ratetol=1.0 / qcomp=0.60 / qpmin=0:0:0 / qpmax=69:69:69 / qpstep=4 / cplxblur=20.0 / qblur=0.5 / ip_ratio=1.40 / pb_ratio=1.30 / aq=2:0.80 / aq-sensitivity=10.00 / aq-factor=1.00:1.00:1.00 / aq2=0 / aq3=0
Default                                  : Да
Forced                                   : Да

Аудио #1
Идентификатор                            : 2
Формат                                   : AC-3
Формат/Информация                        : Audio Coding 3
Расширение режима                        : CM (complete main)
Параметр Endianness формата              : Big
Идентификатор кодека                     : A_AC3
Продолжительность                        : 1 ч. 40 м.
Вид битрейта                             : Постоянный
Битрейт                                  : 384 Кбит/сек
Каналы                                   : 6 каналов
Расположение каналов                     : Front: L C R, Side: L R, LFE
Частота                                  : 48,0 КГц
Битовая глубина                          : 16 бит
Метод сжатия                             : С потерями
Размер потока                            : 275 Мбайт (16%)
Заголовок                                : MVO
Язык                                     : Russian
Default                                  : Нет
Forced                                   : Да

Аудио #2
Идентификатор                            : 3
Формат                                   : AC-3
Формат/Информация                        : Audio Coding 3
Расширение режима                        : CM (complete main)
Параметр Endianness формата              : Big
Идентификатор кодека                     : A_AC3
Продолжительность                        : 1 ч. 40 м.
Вид битрейта                             : Постоянный
Битрейт                                  : 448 Кбит/сек
Каналы                                   : 6 каналов
Расположение каналов                     : Front: L C R, Side: L R, LFE
Частота                                  : 48,0 КГц
Битовая глубина                          : 16 бит
Метод сжатия                             : С потерями
Размер потока                            : 321 Мбайт (19%)
Язык                                     : English
Default                                  : Нет
Forced                                   : Нет

Текст
Идентификатор                            : 4
Формат                                   : UTF-8
Идентификатор кодека                     : S_TEXT/UTF8
Идентификатор кодека/Информация          : UTF-8 Plain Text
Язык                                     : English
Default                                  : Нет
Forced                                   : Нет

Меню
00:00:00.000                             : en:Chapter 01
00:06:50.680                             : en:Chapter 02
00:11:53.040                             : en:Chapter 03
00:16:43.200                             : en:Chapter 04
00:24:54.000                             : en:Chapter 05
00:29:40.040                             : en:Chapter 06
00:37:43.960                             : en:Chapter 07
00:44:34.080                             : en:Chapter 08
00:50:59.880                             : en:Chapter 09
00:56:13.720                             : en:Chapter 10
00:59:46.000                             : en:Chapter 11
01:06:49.360                             : en:Chapter 12
01:13:02.600                             : en:Chapter 13
01:18:20.360                             : en:Chapter 14
01:24:19.720                             : en:Chapter 15
01:31:43.800                             : en:Chapter 16
   
Торрент: Зарегистрирован [Январь 9, 2016, 7:38 pm]
Видео DVD Скачать торрент Магнет ссылка Смотреть онлайн
Скачать торрент
[ Размер 17.4 КБ / Просмотров 0 ]
Статус:
Проверен
---
.torrent скачан: 0 раз
Приватный: Нет (DHT включён)
Размер: 1.68 ГБ (1 804 853 829)
   
Аватара пользователя
sergey
 
Раздал: 42.54 ТБ
Скачал: 198.69 ГБ
Ратио: 265.234
Сообщения: 5350
Зарегистрирован: Август 6, 2012, 2:11 pm
Откуда: СССР

Флаг страны: СССР

Вернуться в Видео DVD



Кто сейчас на конференции

Сейчас эту тему просматривают: нет зарегистрированных пользователей и гости: 1

cron
Ресурс не содержит никакой другой информации, кроме описаний отдельных файлов или их групп, имеющихся у некоторых пользователей данного ресурса. Подтверждением наличия данных файлов у пользователя может иногда являться специальный набор значений, представляющих собой результаты применения односторонних хеш-функций к этим файлам или их группам. Данные наборы значений объединяются пользователями в единое целое и могут быть выложены ими вместе с описаниями имеющихся у них файлов. Администрация данного ресурса не имеет физической возможности убедиться, что описания файлов, выложенные нашими пользователями, равно как и созданные ими наборы хешей от файлов, соответствуют реальным файлам имеющимся у пользователей, а не созданы каким-либо иным способом.
cron
Яндекс.Метрика