Дьявол / Diablo (2015) WEB-DLRip [VO]

Фильмы в формате WEBRip/Avi и т.д.

Оценка торрента

5
0
Голосов нет
4
0
Голосов нет
3
0
Голосов нет
2
0
Голосов нет
1
0
Голосов нет
 
Всего голосов : 0

 Статистика раздачи 
Размер: 1.3 ГБ   |  Зарегистрирован: Январь 10, 2016, 6:53 pm   |   .torrent скачан: 0 раз
Сидеров: 0  [ 0 байт/сек ]   Личеров: 0  [ 0 байт/сек ]  

Дьявол / Diablo (2015) WEB-DLRip [VO]

Сообщение sergey » Январь 10, 2016, 6:53 pm

Дьявол / Diablo (2015) WEB-DLRip
Производство: США, Канада
Жанр: Вестерн, Боевик, Триллер

Режиссер: Лоуренс Рёк
Продюсер: Лоуренс Рёк, Джейкоб Берковиц, Лэсли Бэрковиц
Актеры: Скотт Иствуд, Уолтон Гоггинс, Камилла Белль, Дэнни Гловер, Адам Бич, Диего Диабло Дель Мар, Неста Купер, Уильям Белло

Описание:
Бывший солдат гражданской войны с посттравматический синдромом, пытается спасти свою жену, которую похитили. Он идет по следу похитителей... Травма дает о себе знать и он переживает все ужасы дьявольской войны, которые вернулись, чтобы преследовать его...


Дата мировой премьеры: 2 октября 2015

Продолжительность: 01:23:11
Качество видео: WEB-DLRip
Перевод: Одноголосый закадровый, любительский
Озвучка / Автор перевода: Хихикающий доктор
Вид субтитров: Отсутствуют
Реклама: Присутствуют голосовые вставки рекламы

Видео: Xvid, 720x300, ~1977 Кбит/с
Аудио: MP3, 2 ch, 192 Кбит/с, CBR
Семпл: Скачать
Код:
Код: Выделить всё
Общее
Полное имя                               : D:\FILMЬl\BPPO\Djavoll.avi
Формат                                   : AVI
Формат/Информация                        : Audio Video Interleave
Размер файла                             : 1,30 Гбайт
Продолжительность                        : 1 ч. 23 м.
Общий поток                              : 2243 Кбит/сек
Программа кодирования                    : VirtualDubMod 1.5.10.2 (build 2542/release)
Библиотека кодирования                   : VirtualDubMod build 2542/release

Видео
Идентификатор                            : 0
Формат                                   : xvid
Идентификатор кодека                     : xvid
Продолжительность                        : 1 ч. 23 м.
Битрейт                                  : 1977 Кбит/сек
Ширина                                   : 720 пикселей
Высота                                   : 300 пикселей
Соотношение сторон                       : 2,40:1
Частота кадров                           : 23,976 кадра/сек
Бит/(Пиксели*Кадры)                      : 0.382
Размер потока                            : 1,15 Гбайт (88%)

Аудио
Идентификатор                            : 1
Формат                                   : MPEG Audio
Версия формата                           : Version 1
Профиль формата                          : Layer 3
Режим                                    : Joint stereo
Идентификатор кодека                     : 55
Идентификатор кодека/Подсказка           : MP3
Продолжительность                        : 1 ч. 23 м.
Вид битрейта                             : Постоянный
Битрейт                                  : 256 Кбит/сек
Каналы                                   : 2 канала
Частота                                  : 44,1 КГц
Метод сжатия                             : С потерями
Размер потока                            : 152 Мбайт (11%)
Выравнивание                             : Соединение по промежуткам
Продолжительность промежутка             : 42  мс. (1,00 видеокадр)
Время предзагрузки промежутка            : 522  мс.

Скриншоты:

   
Торрент: Зарегистрирован [Январь 10, 2016, 6:53 pm]
Видео WEBRip Скачать торрент Магнет ссылка Смотреть онлайн
Скачать торрент
[ Размер 13.8 КБ / Просмотров 5 ]
Статус:
Проверен
---
.torrent скачан: 0 раз
Приватный: Нет (DHT включён)
Размер: 1.3 ГБ (1 399 199 744)
   
Аватара пользователя
sergey
 
Раздал: 42.54 ТБ
Скачал: 198.69 ГБ
Ратио: 265.234
Сообщения: 5343
Зарегистрирован: Август 6, 2012, 2:11 pm
Откуда: СССР

Флаг страны: СССР

  • Похожие торренты
    Ответы
    Просмотры
    Последнее сообщение

Вернуться в Видео WEBRip



Кто сейчас на конференции

Сейчас эту тему просматривают: нет зарегистрированных пользователей и гости: 1

cron
Ресурс не содержит никакой другой информации, кроме описаний отдельных файлов или их групп, имеющихся у некоторых пользователей данного ресурса. Подтверждением наличия данных файлов у пользователя может иногда являться специальный набор значений, представляющих собой результаты применения односторонних хеш-функций к этим файлам или их группам. Данные наборы значений объединяются пользователями в единое целое и могут быть выложены ими вместе с описаниями имеющихся у них файлов. Администрация данного ресурса не имеет физической возможности убедиться, что описания файлов, выложенные нашими пользователями, равно как и созданные ими наборы хешей от файлов, соответствуют реальным файлам имеющимся у пользователей, а не созданы каким-либо иным способом.
cron
Яндекс.Метрика