Игра в куклы / Playing with Dolls (2015) HDRip

Фильмы в формате DVD

Оценка торрента

5
0
Голосов нет
4
0
Голосов нет
3
0
Голосов нет
2
0
Голосов нет
1
0
Голосов нет
 
Всего голосов : 0

 Статистика раздачи 
Размер: 1.37 ГБ   |  Зарегистрирован: Январь 13, 2016, 8:01 am   |   .torrent скачан: 1 раз
Сидеров: 0  [ 0 байт/сек ]   Личеров: 4  [ 0 байт/сек ]  

Игра в куклы / Playing with Dolls (2015) HDRip

Сообщение sergey » Январь 13, 2016, 8:01 am

Игра в куклы / Playing with Dolls (2015) HDRip
Производство: США / iDiC Entertainment
Жанр: Ужасы

Режиссер: Рене Перез
Актеры: Наташа Бласик, Ричард Тайсон, Чарли Глакин, Аланна Форте, Дэвид А. Локхарт, Джон Скудери, Джош Уелш, Эллисон Стёрджес, Шон Стори, Лиза Коллинс

Описание:
Серийного убийцу намеренно выпустили из больницы для душевнобольных преступников, так что он может продолжать свою ярость…



Продолжительность: 01:23:09
Качество видео: HDRip
Перевод: Двухголосый закадровый любительский [den904 & DeadSno]
Автор перевода: [chup]

Видео: Xvid, 720x400, ~1955 kb/s
Аудио Rus: AC3, 2 ch, 192 kb/s, CBR
Аудио Eng: AC3, 2 ch, 192 kb/s, CBR (отдельный файл)
Код:
Код: Выделить всё
Формат                                   : AVI
Формат/Информация                        : Audio Video Interleave
Профиль формата                          : OpenDML
Размер файла                             : 1,25 Гбайт
Продолжительность                        : 1 ч. 23 м.
Общий поток                              : 2160 Кбит/сек
Программа кодирования                    : Lavf56.25.101

Видео
Идентификатор                            : 0
Формат                                   : MPEG-4 Visual
Профиль формата                          : Advanced Simple@L5
Параметр BVOP формата                    : 1
Параметр QPel формата                    : Нет
Параметр GMC формата                     : Без точки перехода
Параметр матрицы формата                 : Выборочная
Идентификатор кодека                     : XVID
Идентификатор кодека/Подсказка           : XviD
Продолжительность                        : 1 ч. 23 м.
Битрейт                                  : 1955 Кбит/сек
Ширина                                   : 720 пикселей
Высота                                   : 400 пикселей
Соотношение сторон                       : 16:9
Частота кадров                           : 23,976 кадра/сек
Цветовое пространство                    : YUV
Субдискретизация насыщенности            : 4:2:0
Битовая глубина                          : 8 бит
Тип развёртки                            : Прогрессивная
Метод сжатия                             : С потерями
Бит/(Пиксели*Кадры)                      : 0.283
Размер потока                            : 1,14 Гбайт (91%)
Библиотека кодирования                   : XviD 73

Аудио
Идентификатор                            : 1
Формат                                   : AC-3
Формат/Информация                        : Audio Coding 3
Расширение режима                        : CM (complete main)
Параметр Endianness формата              : Big
Идентификатор кодека                     : 2000
Продолжительность                        : 1 ч. 23 м.
Вид битрейта                             : Постоянный
Битрейт                                  : 192 Кбит/сек
Каналы                                   : 2 канала
Расположение каналов                     : Front: L R
Частота                                  : 48,0 КГц
Битовая глубина                          : 16 бит
Метод сжатия                             : С потерями
Размер потока                            : 114 Мбайт (9%)
Выравнивание                             : Соединение по промежуткам
Продолжительность промежутка             : 32  мс. (0,77 видеокадр)

Скриншоты:


   
Торрент: Зарегистрирован [Январь 13, 2016, 8:01 am]
Видео DVD Скачать торрент Магнет ссылка Смотреть онлайн
Скачать торрент
[ Размер 14.58 КБ / Просмотров 2 ]
Статус:
Проверен
---
.torrent скачан: 1 раз
Приватный: Нет (DHT включён)
Размер: 1.37 ГБ (1 467 025 080)
   
Аватара пользователя
sergey
 
Раздал: 42.54 ТБ
Скачал: 198.69 ГБ
Ратио: 265.234
Сообщения: 5350
Зарегистрирован: Август 6, 2012, 2:11 pm
Откуда: СССР

Флаг страны: СССР

  • Похожие торренты
    Ответы
    Просмотры
    Последнее сообщение

Вернуться в Видео DVD



Кто сейчас на конференции

Сейчас эту тему просматривают: нет зарегистрированных пользователей и гости: 1

Ресурс не содержит никакой другой информации, кроме описаний отдельных файлов или их групп, имеющихся у некоторых пользователей данного ресурса. Подтверждением наличия данных файлов у пользователя может иногда являться специальный набор значений, представляющих собой результаты применения односторонних хеш-функций к этим файлам или их группам. Данные наборы значений объединяются пользователями в единое целое и могут быть выложены ими вместе с описаниями имеющихся у них файлов. Администрация данного ресурса не имеет физической возможности убедиться, что описания файлов, выложенные нашими пользователями, равно как и созданные ими наборы хешей от файлов, соответствуют реальным файлам имеющимся у пользователей, а не созданы каким-либо иным способом.
cron
Яндекс.Метрика