Свиридовы (1-8 серии из 8) [2013, мелодрама, WEB-DLRip-AVC]

Отечественные и зарубежные сериалы

Оценка торрента

5
0
Голосов нет
4
0
Голосов нет
3
0
Голосов нет
2
0
Голосов нет
1
0
Голосов нет
 
Всего голосов : 0

 Статистика раздачи 
Размер: 5.02 ГБ   |  Зарегистрирован: Январь 17, 2016, 1:08 pm   |   .torrent скачан: 271 раз
Сидеров: 63  [ 0 байт/сек ]   Личеров: 19  [ 0 байт/сек ]  

Свиридовы (1-8 серии из 8) [2013, мелодрама, WEB-DLRip-AVC]

Сообщение sergey » Январь 17, 2016, 1:08 pm

Свиридовы (1-8 серии

Перевод: Не требуется, cубтитры: отсутствуют
Формат: WEB-DLRip-AVC, MKV, H.264, AC3
Страна: Россия
Режиссер: Эльдар Салаватов
Жанр: мелодрама
Всего серий: 8
Продолжительность: 8 х ~ 00:45:00
Год выпуска: 2013

В ролях: Алексей Горбунов, Андрей Мерзликин, Дмитрий Марьянов, Иван Добронравов, Елена Яковлева, Михаил Гаврилов (II), Данил Стеклов, Анастасия Ричи, Маргарита Толстоганова

Описание: Иван Свиридов возвращается из армии и встречается с друзьями детства – Равилем, Маркиным, Пашулей и Риткой. Друзья устраивают для него вечеринку, на которой Иван знакомится с Мирой. Товарищи предлагают Ивану работать с ними в автомастерской, но у Ивана более амбициозные планы: он хочет закончить разработку уникальной технологии, о которой год назад писал в своем дипломе и которая сразу же привлекла внимание серьезных бизнесменов. Однако дядя Миша подготовил для своего племянника свой план, в котором за Ивана уже придумана вся его будущая карьера.

Рейтинг и доп. информация:


Видео: 1024x576 (16:9), 25.000 fps, MPEG4 AVC (х264) , ~ 1600 kbps avg, 0.109 bit/pixel
Аудио: 48 kHz, AC3, 2 ch, 192 kbps avg
Общее
Уникальный идентификатор : 199114753562211318609421810414795954013 (0x95CC1B4BCE9F1B9880F27AFD631D175D)
Полное имя : Sviridovy.2013.WEB-DLRip.(AVC).\01.Sviridovy.2013.WEB-DLRip.AVC..mkv
Формат : Matroska
Версия формата : Version 2
Размер файла : 607 Мбайт
Продолжительность : 45 м.
Общий поток : 1788 Кбит/сек
Дата кодирования : UTC 2016-01-12 03:10:50
Программа кодирования : mkvmerge v6.1.0 ('Old Devil') built on Mar 4 2013 09:10:42
Библиотека кодирования : libebml v1.3.0 + libmatroska v1.4.0

Видео
Идентификатор : 1
Формат : AVC
Формат/Информация : Advanced Video Codec
Профиль формата :
Параметр CABAC формата : Да
Параметр ReFrames формата : 9 кадров
Идентификатор кодека : V_MPEG4/ISO/AVC
Продолжительность : 45 м.
Битрейт : 1600 Кбит/сек
Ширина : 1024 пикселя
Высота : 576 пикселей
Соотношение сторон : 16:9
Режим частоты кадров : Постоянный
Частота кадров : 25,000 кадров/сек
Цветовое пространство : YUV
Субдискретизация насыщенности : 4:2:0
Битовая глубина : 8 бит
Тип развёртки : Прогрессивная
Бит/(Пиксели*Кадры) : 0.109
Размер потока : 513 Мбайт (87%)
Библиотека кодирования : x264 core 130 r2273 b3065e6
Настройки программы : cabac=1 / ref=9 / deblock=1:-2:-1 / analyse=0x3:0x133 / me=umh / subme=9 / psy=1 / psy_rd=1.00:0.15 / mixed_ref=1 / me_range=32 / chroma_me=1 / trellis=2 / 8x8dct=1 / cqm=0 / deadzone=21,11 / fast_pskip=0 / chroma_qp_offset=-3 / threads=6 / lookahead_threads=1 / sliced_threads=0 / nr=0 / decimate=1 / interlaced=0 / bluray_compat=0 / constrained_intra=0 / bframes=9 / b_pyramid=2 / b_adapt=2 / b_bias=0 / direct=1 / weightb=1 / open_gop=0 / weightp=2 / keyint=250 / keyint_min=25 / scenecut=40 / intra_refresh=0 / rc=2pass / mbtree=0 / bitrate=1600 / ratetol=1.0 / qcomp=0.60 / qpmin=0 / qpmax=69 / qpstep=4 / cplxblur=20.0 / qblur=0.5 / ip_ratio=1.40 / pb_ratio=1.30 / aq=2:1.00
Default : Да
Forced : Нет
Цветовой диапазон : Limited
Основные цвета : BT.709
Характеристики трансфера : BT.709
Коэффициенты матрицы : BT.709

Аудио
Идентификатор : 2
Формат : AC-3
Формат/Информация : Audio Coding 3
Расширение режима : CM (complete main)
Параметр Endianness формата : Big
Идентификатор кодека : A_AC3
Продолжительность : 45 м.
Вид битрейта : Постоянный
Битрейт : 192 Кбит/сек
Каналы : 2 канала
Расположение каналов : Front: L R
Частота : 44,1 КГц
Метод сжатия : С потерями
Размер потока : 63,1 Мбайт (11%)
Default : Да
Forced : Нет








   
Торрент: Зарегистрирован [Январь 17, 2016, 1:08 pm]
Сериалы Скачать торрент Магнет ссылка Смотреть онлайн
Скачать торрент
[ Размер 26.55 КБ / Просмотров 8 ]
Статус:
Проверен
---
.torrent скачан: 271 раз
Приватный: Нет (DHT включён)
Размер: 5.02 ГБ (5 395 226 139)
   
Аватара пользователя
sergey
 
Раздал: 42.54 ТБ
Скачал: 198.69 ГБ
Ратио: 265.234
Сообщения: 5348
Зарегистрирован: Август 6, 2012, 2:11 pm
Откуда: СССР

Флаг страны: СССР

  • Похожие торренты
    Ответы
    Просмотры
    Последнее сообщение

Вернуться в Сериалы



Кто сейчас на конференции

Сейчас эту тему просматривают: нет зарегистрированных пользователей и гости: 1

cron
Ресурс не содержит никакой другой информации, кроме описаний отдельных файлов или их групп, имеющихся у некоторых пользователей данного ресурса. Подтверждением наличия данных файлов у пользователя может иногда являться специальный набор значений, представляющих собой результаты применения односторонних хеш-функций к этим файлам или их группам. Данные наборы значений объединяются пользователями в единое целое и могут быть выложены ими вместе с описаниями имеющихся у них файлов. Администрация данного ресурса не имеет физической возможности убедиться, что описания файлов, выложенные нашими пользователями, равно как и созданные ими наборы хешей от файлов, соответствуют реальным файлам имеющимся у пользователей, а не созданы каким-либо иным способом.
cron
Яндекс.Метрика